Ссылка на приватное зеркало нашего сайта всего за 1$. Внимание количество ограничено!!!

2 сезон

iTunes

1 сезон

1

iTunes

iTunes

iTunes

1 сезон

RePack

30

ИГРА 18+

pack

ВАЖНО

!!Акция!!

Alien_RageХит недели

RePack

MK11
pack

Забери бонус

RePack

jed

!!Акция!!

Alien_Rage

RePack

fifa19

RePack

Assassins Creed: Odyssey

RePack

NEED FOR SPEED™ PAYBACK

4 сезон

9 сезон

Бесстыжие 9 сезон

Все сериалы

все сериалы на PB.wtf

RePack

FAR CRY 5
  

Хождение по мукам / Серия 1-12 из 12 (Константин Худяков) [2017 г., Драма, экранизация, SATRip] pb.wtf

Хождение по мукам через торрент pb.wtf

Размер: 8.12 GB | Добавлен: 2 года 10 мес. назад | Торрент скачан:158 раз
Скачать  

27-11-2017 14:22 Хождение по мукам Скачать торрент  

Хождение по мукам / Серия 1-12 из 12
Год выпуска: 2017
Страна: Россия
Жанр: Драма, экранизация
Продолжительность: 12 х ~00:51:00
Субтитры: Нет

Режиссер: Константин Худяков

В ролях: Юлия Снигирь, Анна Чиповская, Павел Трубинер, Леонид Бичевин, Антон Шагин, Андрей Мерзликин, Светлана Ходченкова, Алексей Колган, Александр Яценко, Евгений Стычкин, Владимир Кошевой, Александр Галибин, Сергей Колтаков, Владимир Юматов, Евгений Ткачук, Дмитрий Дюжев, Сергей Пускепалис, Андрей Чернышов, Игнатий Акрачков, Сергей Угрюмов, Нина Дворжецкая, Никита Кукушкин, Роман Курцын, Роман Мадянов, Алексей Кирсанов, Иван Кокорин, Елена Валюшкина, Юлия Полынская

Описание: Великий роман Алексея Толстого «Хождение по мукам» повествует о переломных для России событиях 1914–1919 годов. Легендарное произведение о судьбах русской интеллигенции накануне Революции стало основой нового сериала от сценариста Елены Райской и режиссера Константина Худякова, который появится в эфире в октябре 2017 года. Санкт-Петербург, 1914 год. Город живёт «словно в ожидании рокового и страшного дня», общество жаждет перемен. В центре истории — сёстры Булавины: Катя и Даша. Обе девушки влюблены в поэта-декадента Алексея Бессонова, который меняет их мировоззрение и привычный образ жизни. Первая мировая вносит в беззаботное существование Булавиных-Смоковниковых новые смыслы и переживания. Когда война подходит к концу, кажется, счастье близко… Однако революция и гражданская война полностью меняют жизнь сестёр, их семей и всей страны. Пути героев не раз пересекаются и расходятся вновь. «Хождение по мукам» становится для них не метафорой, а реальной жизнью.

Качество: SATRip
Формат: AVI
Видео кодек: XviD
Аудио кодек: MP3
Видео: 720x304, 25 fps, XviD build 50 ~1800 kbps
Аудио#1: 48 kHz, MPEG Layer 3, 2 ch, ~128.00 kbps
скриншот   скриншот   скриншот   скриншот  

General
Complete name : H:\релизы.торрентфайл\Хождение по мукам(2017)\Hozhdenie.po.mukam.01.SATRip.[www.riperam.org].avi
Format : AVI
Format/Info : Audio Video Interleave
File size : 710 MiB
Duration : 51mn 6s
Overall bit rate : 1 942 Kbps

Video
ID : 0
Format : MPEG-4 Visual
Format profile : Advanced Simple@L5
Format settings, BVOP : 2
Format settings, QPel : No
Format settings, GMC : No warppoints
Format settings, Matrix : Default (H.263)
Codec ID : XVID
Codec ID/Hint : XviD
Duration : 51mn 6s
Bit rate : 1 800 Kbps
Width : 720 pixels
Height : 304 pixels
Display aspect ratio : 2.35:1
Frame rate : 25.000 fps
Color space : YUV
Chroma subsampling : 4:2:0
Bit depth : 8 bits
Scan type : Progressive
Compression mode : Lossy
Bits/(Pixel*Frame) : 0.329
Stream size : 658 MiB (93%)
Writing library : XviD 1.2.1 (UTC 2008-12-04)

Audio
ID : 1
Format : MPEG Audio
Format version : Version 1
Format profile : Layer 3
Mode : Joint stereo
Mode extension : MS Stereo
Codec ID : 55
Codec ID/Hint : MP3
Duration : 51mn 6s
Bit rate mode : Constant
Bit rate : 128 Kbps
Channel(s) : 2 channels
Sampling rate : 48.0 KHz
Compression mode : Lossy
Stream size : 46.8 MiB (7%)
Alignment : Aligned on interleaves
Interleave, duration : 24 ms (0.60 video frame)
Writing library : LAME3.99r
Encoding settings : -m j -V 4 -q 9 -lowpass 17 -b 128

Внимание! Раздача ведётся путём добавления новых серий; при каждом добавлении создётся новый торрент. Чтобы начать докачку новой серии, пользователям необходимо сделать следующее:
  • Остановить скачивание,
  • Удалить старый торрент у себя из клиента (старые серии удалять не надо),
  • Скачать новый торрент и запустить его у себя в клиенте вместо старого, при этом указать клиенту путь в старую папку куда и должно происходить скачивание новых серий.
Ваш клиент при этом должен произвести хеширование (проверку) старой папки (если не производит сам - помогите ему сделать это), и будет докачивать только те серии которых у вас ещё нет. Старые серии при этом не удаляются, а продолжают раздаваться!

Eсли вы уже удалили старые серии, то предотвратить повторную закачку старых серий можно, отжав галочку в соответсвующих местах при запуске нового торрента. По возможности, желательно не удалять старые серии как можно дольше чтобы релизёр не столько продолжал раздавать старые серии, а смог сконцентрироваться на новых.
pb.wtf



Скачать Хождение по мукам через торрент http://pic1.kartinco.top/images/11/oaxs1.jpg Скачать фильм Хождение по мукам через торрент бесплантно в хорошем качестве Описание: Великий роман Алексея Толстого «Хождение по мукам» повествует о переломных для России событиях 1914–1919 годов. Легендарное ... 9.1 10 20
Торрент: Зарегистрирован [2017-12-05 14:56] · скачан: 158 раз
Статус: √ проверено
Размер: 8.12 GB
Как cкачать? Как скачать Хождение по мукам через торрент | qTorrent

% Раздел Тема Автор DL S | L
Наши сериалы [ 9.41 GB ] Хождение по мукам / Сезон: 1 / Серии: 1-12 из 12 [2017 экранизация WEB-DLRip-AVC] bober100 Скачать
1 | 0
Наши сериалы [ 7.6 GB ] Хождение по мукам / Сезон: 1 / Серии: 1-12 из 12 [2017 экранизация WEB-DLRip] bober100 Скачать
1 | 0
Наши сериалы [ 26.26 GB ] Хождение по мукам / Серии 1-12 из 12 [2017 экранизация WEB-DL 1080p] bober100 Скачать
1 | 0
Наши сериалы [ 7.19 GB ] Хождение по мукам / Серии: 1-12 из 12 [2017 экранизация SATRip-AVC] aleksan55 Скачать
1 | 0


Последний раз редактировалось: oleg8 (2017-12-05 14:56), всего редактировалось 5 раз(а)

28-11-2019 20:33  

Отключить всю рекламу на сайте

28-11-2017 14:54 Хождение по мукам Скачать торрент  

Добавил 3-4 серии.pb.wtf



29-11-2017 22:51 Хождение по мукам Скачать торрент  

Добавил 5-6 серии.pb.wtf



04-12-2017 15:39 Хождение по мукам Скачать торрент  

добавил 9-10 серии.pb.wtf



05-12-2017 14:57 Хождение по мукам Скачать торрент  

Добавил 11-12 серии.Сериал завершен.pb.wtf



06-12-2017 17:36 Хождение по мукам Скачать торрент  

за труды спс,но качество можно найти и лучше,плюс вырезкиpb.wtf



    Дорогой пользователь! Огромная просьба, поблагодарите релизера, оцените раздачу и оставьте свои комментарий, если Вы скачали Хождение по мукам через торрент бесплатно! Внесите свою лепту в развитие PiratBit!
    Комментировать посты могут только пользователи прошедшие не сложную регистрацию
    Показать сообщения:    

    Хождение по мукам через торрент
    Скачать бесплатно Хождение по мукам
    Хождение по мукам скачать торрент
    Хождение по мукам смотреть онлайн
    Cкачать фильм Хождение по мукам бесплатно
    Хождение по мукам скачать торрент в хорошем качестве
    Хождение по мукам смотреть онлайн бесплатно в хорошем качестве


    Вы не можете начинать темы
    Вы не можете отвечать на сообщения
    Вы не можете редактировать свои сообщения
    Вы не можете удалять свои сообщения
    Вы не можете голосовать в опросах
    Вы не можете прикреплять файлы к сообщениям
    Вы можете скачивать файлы