2 сезон

iTunes

MVO

1

2 сезон

iTunes

iTunes

1 сезон

RePack

30

Ultimate

ВАЖНО

ИГРА 18+

pack

RePack

MK11
pack

Легкие деньги

RePack

jed

RePack

fifa19

RePack

RDR2

RePack

NEED FOR SPEED™ PAYBACK

4 сезон

9 сезон

Бесстыжие 9 сезон

Все сериалы

все сериалы на PB.wtf

RePack

FAR CRY 5

Anonymous, добрый день, мы не успеваем собрать деньги на оплату серверов за декабрь и январь, помогите нам пожалуйста в это трудное время. В качестве благодарности мы отключим Вам всю рекламу на сайте (укажите свой ник в строку Ваше имя)!

×
  
Magnet ссылка

Синяя бездна / Страх глубины / 47 Meters Down (Йоханнес Робертс / Johannes Roberts) [2017, ужасы, триллер, драма, приключения, BDRip-AVC] [Open Matte] Dub [Лицензия] pb.wtf

Синяя бездна через торрент pb.wtf

Раздают: 1 [ 0 KB/s ]
Размер: 780 MB | Добавлен: 3 года 1 мес. назад | Торрент скачан:125 раз
Скачать  

27-11-2017 16:14 Синяя бездна Скачать торрент  

Синяя бездна / Страх глубины
47 Meters Down

«В 47 метрах от спасения. Всего час кислорода. Среди хищников»


Страна: Великобритания, США, Доминикана
Жанр: ужасы, триллер, драма, приключения

Год выпуска: 2017
Продолжительность: 01:29:05

Перевод: Профессиональный (полное дублирование) [Blu-Ray RUS]
Субтитры: русские (полные)
Оригинальная аудиодорожка: нет

Режиссер: Йоханнес Робертс / Johannes Roberts

В ролях: Мэнди Мур, Клер Холт, Крис Дж. Джонсон, Яни Гельман, Сантьяго Сегура, Мэттью Модайн, Майра Хуарес, Аксель Мансилла

Описание:
Отдыхая на солнечных пляжах Мексики, Лиза и ее сестра Кейт решаются на погружение в клетке к большим белым акулам. Но зрелищный аттракцион оборачивается кошмаром, когда клетка с двумя девушками срывается на океанское дно. Помощи ждать неоткуда, а кислорода остается лишь на час. Единственный выход из смертельной ловушки — плыть вверх через толщу воды, которая кишит самыми свирепыми хищниками океана.



Релиз:

Автор рипа: stalkerok | Моя группа

Сэмпл

Качество видео: BDRip-AVC [47 Meters Down (2017) Blu-ray Disc [RUS] -BLUEBIRD]
Формат видео: MKV
Видео кодек: AVC
Аудио кодек: AAC
Видео: 1159 Кбит/сек, 704*396 (16:9), в 24,000 кадра/сек, AVC
Аудио: русский, 62,0 Кбит/сек, 48,0 КГц / 24,0 КГц, 2 канала, AAC (HE-AAC / LC)
Навигация по главам: есть

Blu-Ray US (2,40:1)

Blu-Ray RUS (16:9) Open Matte
---[Information] [26.11.2017 1:47:00] x264 [info]: frame I:676 Avg QP:19.81 size: 22064
---[Information] [26.11.2017 1:47:00] x264 [info]: frame P:27701 Avg QP:21.27 size: 11179
---[Information] [26.11.2017 1:47:00] x264 [info]: frame B:99923 Avg QP:23.55 size: 4505

Общее
Уникальный идентификатор : 179076280674897981775655712046475095584 (0x86B8D64E076C0654A3F2B419A0F3AE20)
Полное имя : M:\!Rips2017\47 Meters Down\rusBD\47.Meters.Down.2017.BDRip-AVC.Open.Matte.RUS.stalkerok.new-team..mkv
Формат : Matroska
Версия формата : Version 4 / Version 2
Размер файла : 780 Мбайт
Продолжительность : 1 ч. 29 м.
Общий поток : 1223 Кбит/сек
Название фильма : 47 Meters Down (2017) (Rip by stalkerok)
Дата кодирования : UTC 2017-11-25 23:49:33
Программа кодирования : mkvmerge v8.6.1 ('Flying') 64bit
Библиотека кодирования : libebml v1.3.3 + libmatroska v1.4.4

Видео
Идентификатор : 1
Формат : AVC
Формат/Информация : Advanced Video Codec
Профиль формата : High@L4.1
Параметр CABAC формата : Да
Параметр ReFrames формата : 16 кадров
Идентификатор кодека : V_MPEG4/ISO/AVC
Продолжительность : 1 ч. 29 м.
Битрейт : 1159 Кбит/сек
Ширина : 704 пикселя
Высота : 396 пикселей
Соотношение сторон : 16:9
Режим частоты кадров : Постоянный
Частота кадров : 24,000 кадра/сек
Цветовое пространство : YUV
Субдискретизация насыщенности : 4:2:0
Битовая глубина : 8 бит
Тип развёртки : Прогрессивная
Бит/(Пиксели*Кадры) : 0.173
Размер потока : 739 Мбайт (95%)
Заголовок : 47 Meters Down (2017) (Rip by stalkerok)
Библиотека кодирования : x264 core 152 r2851kMod ba24899
Настройки программы : cabac=1 / ref=16 / deblock=1:-3:-2 / analyse=0x3:0x133 / me=umh / subme=11 / psy=1 / fade_compensate=0.00 / psy_rd=1.00:0.00 / mixed_ref=1 / me_range=32 / chroma_me=1 / trellis=2 / 8x8dct=1 / cqm=0 / deadzone=21,11 / fast_pskip=0 / chroma_qp_offset=-2 / threads=12 / lookahead_threads=3 / sliced_threads=0 / nr=0 / decimate=1 / interlaced=0 / bluray_compat=0 / constrained_intra=0 / bframes=16 / b_pyramid=2 / b_adapt=2 / b_bias=0 / direct=3 / weightb=1 / open_gop=0 / weightp=2 / keyint=240 / keyint_min=23 / scenecut=40 / intra_refresh=0 / rc_lookahead=60 / rc=crf / mbtree=0 / crf=21.7000 / qcomp=0.65 / qpmin=0 / qpmax=69 / qpstep=4 / vbv_maxrate=50000 / vbv_bufsize=62500 / crf_max=0.0 / nal_hrd=none / filler=0 / ip_ratio=1.40 / pb_ratio=1.30 / aq=3:1.00 / zones=121038,128299,q=36
Default : Да
Forced : Нет

Аудио
Идентификатор : 2
Формат : AAC
Формат/Информация : Advanced Audio Codec
Профиль формата : HE-AAC / LC
Идентификатор кодека : A_AAC
Продолжительность : 1 ч. 29 м.
Битрейт : 62,0 Кбит/сек
Каналы : 2 канала
Расположение каналов : Front: L R
Частота : 48,0 КГц / 24,0 КГц
Частота кадров : 23,438 кадра/сек (1024 spf)
Метод сжатия : С потерями
Задержка видео : 31 мс.
Размер потока : 39,5 Мбайт (5%)
Язык : Russian
Default : Да
Forced : Нет

Текст
Идентификатор : 3
Формат : UTF-8
Идентификатор кодека : S_TEXT/UTF8
Идентификатор кодека/Информация : UTF-8 Plain Text
Продолжительность : 1 ч. 21 м.
Битрейт : 68 бит/сек
Count of elements : 1002
Размер потока : 40,6 Кбайт (0%)
Язык : Russian
Default : Нет
Forced : Нет

Меню
00:00:00.000 : en:Chapter 1
00:02:46.958 : en:Chapter 2
00:12:05.375 : en:Chapter 3
00:20:35.125 : en:Chapter 4
00:31:16.625 : en:Chapter 5
00:44:11.166 : en:Chapter 6
00:55:38.500 : en:Chapter 7
01:05:42.500 : en:Chapter 8
01:15:17.125 : en:Chapter 9
скриншот   скриншот   скриншот   скриншот   скриншот   скриншот   скриншот  
pb.wtf



Скачать Синяя бездна через торрент http://img12.lostpic.net/2017/09/15/4289e31c4180f15d10ed00428e766b36.png Скачать фильм Синяя бездна через торрент бесплантно в хорошем качестве Описание:Отдыхая на солнечных пляжах Мексики, Лиза и ее сестра Кейт решаются на погружение в клетке к большим белым акулам. Но зрелищный ... 10 10 6
Info! Золотая раздача, скачанное не засчитывается.
Торрент: Зарегистрирован [2017-11-27 16:14] · скачан: 125 раз
Статус: √ проверено
Размер: 780 MB
Как cкачать? Как скачать Синяя бездна через торрент | UTorrent

% Раздел Тема Автор DL S | L
Фильмы (Blu-ray, BD-Remux, HDDVD) [ 21.08 GB ] Синяя бездна / Страх глубины / 47 Meters Down [2017 BD Remux 1080p] DUB [US Transfer] [] bober100 Скачать
1 | 0
Фильмы (Blu-ray, BD-Remux, HDDVD) [ 16.54 GB ] Синяя бездна / Страх глубины / 47 Meters Down [2017 Blu-ray 1080p] DUB [] bober100 Скачать
1 | 0
Фильмы 2017 [DVDrip, WEB-DLRip, HDrip] (DUB, MVO) [ 2.94 GB ] Синяя бездна / Страх глубины / 47 Meters Down [2017 BDRip-AVC] [Open Matte] sokol_ok Скачать
2 | 0
Фильмы 2017 [DVDrip, WEB-DLRip, HDrip] (DUB, MVO) [ 2.17 GB ] Синяя бездна / Страх глубины / 47 Meters Down [2017 BDRip-AVC] [Open Matte] sokol_ok Скачать
2 | 0
Фильмы 2017 [DVDrip, WEB-DLRip, HDrip] (DUB, MVO) [ 1.47 GB ] Синяя бездна / Страх глубины / 47 Meters Down [2017 BDRip-AVC] [Open Matte] sokol_ok Скачать
2 | 0
Фильмы 2017 [DVDrip, WEB-DLRip, HDrip] (DUB, MVO) [ 745 MB ] Синяя бездна / Страх глубины / 47 Meters Down [2017 Доминикана BDRip-AVC] sokol_ok Скачать
2 | 0
Фильмы 2017 [DVDrip, WEB-DLRip, HDrip] (DUB, MVO) [ 2.18 GB ] Синяя бездна / Страх глубины / 47 Meters Down [2017 Доминикана BDRip-AVC] sokol_ok Скачать
2 | 0

28-11-2019 20:33  

Отключить всю рекламу на сайте

    Дорогой пользователь! Огромная просьба, поблагодарите релизера, оцените раздачу и оставьте свои комментарий, если Вы скачали Синяя бездна через торрент бесплатно! Внесите свою лепту в развитие PiratBit!
    Комментировать посты могут только пользователи прошедшие не сложную регистрацию
    Показать сообщения:    

    Синяя бездна через торрент
    Скачать бесплатно Синяя бездна
    Синяя бездна скачать торрент
    Синяя бездна смотреть онлайн
    Cкачать фильм Синяя бездна бесплатно
    Синяя бездна скачать торрент в хорошем качестве
    Синяя бездна смотреть онлайн бесплатно в хорошем качестве


    Вы не можете начинать темы
    Вы не можете отвечать на сообщения
    Вы не можете редактировать свои сообщения
    Вы не можете удалять свои сообщения
    Вы не можете голосовать в опросах
    Вы не можете прикреплять файлы к сообщениям
    Вы можете скачивать файлы