2 сезон

iTunes

MVO

1

2 сезон

iTunes

iTunes

1 сезон

RePack

30

Ultimate

ВАЖНО

ИГРА 18+

pack

RePack

MK11
pack

Легкие деньги

RePack

jed

RePack

fifa19

RePack

RDR2

RePack

NEED FOR SPEED™ PAYBACK

4 сезон

9 сезон

Бесстыжие 9 сезон

Все сериалы

все сериалы на PB.wtf

RePack

FAR CRY 5

Anonymous, добрый вечер, мы не успеваем собрать деньги на оплату серверов за декабрь и январь, помогите нам пожалуйста в это трудное время. В качестве благодарности мы отключим Вам всю рекламу на сайте (укажите свой ник в строку Ваше имя)!

×
  
Magnet ссылка

Валериан и город тысячи планет / Valerian and the City of a Thousand Planets (Люк Бессон / Luc Besson) [2017, фантастика, фэнтези, боевик, BDRip-AVC] Dub [Лицензия] pb.wtf

Валериан и город тысячи планет через торрент pb.wtf

Размер: 4.26 GB | Добавлен: 3 года назад | Торрент скачан:894 раза
Скачать  

27-11-2017 17:40 Валериан и город тысячи планет Скачать торрент  

Валериан и город тысячи планет
Valerian and the City of a Thousand Planets

«From the visionary director of The Fifth Element and Lucy»


Страна: Франция, Китай, Бельгия, Германия, ОАЭ, США, Великобритания, Канада
Жанр: фантастика, фэнтези, боевик, приключения

Год выпуска: 2017
Продолжительность: 02:16:40

Перевод: Профессиональный (полное дублирование) [Blu-ray RUS]
Субтитры: русские (форсированные, полные), украинские (форсированные), английские (форсированные, полные, SDH, SDH цветные)
Оригинальная аудиодорожка: английский

Режиссер: Люк Бессон / Luc Besson

В ролях: Дэйн ДеХаан, Кара Делевинь, Клайв Оуэн, Рианна, Итан Хоук, Херби Хэнкок, Крис У, Сэм Спруэлл, Ален Шаба, Рутгер Хауэр, Питер Хадсон, Ксавье Джанноли

Описание:
2700 год. Валериан и Лорелин - космические спецагенты, которые по долгу службы впутались в подозрительное дело и стали невольными участниками то ли межгалактического заговора, то ли аферы причудливых поселенцев планеты Альфа, прибывших туда из различных миров со всех уголков галактик.



Релиз:

Автор рипа: stalkerok | Моя группа

Сэмпл

Качество видео: BDRip-AVC [Valerian and the City of a Thousand Planets 2017 1080p NOR Blu-ray AVC DTS-HD MA 5.1-ESiR]
Формат видео: MKV
Видео кодек: AVC
Аудио кодек: AC3
Видео: 3561 Кбит/сек, 1152*482 (2,40:1), в 23,976 (24000/1001) кадра/сек, AVC
Аудио #1: русский, 448 Кбит/сек, 48,0 КГц, 6 каналов, AC-3
Аудио #2: английский, 448 Кбит/сек, 48,0 КГц, 6 каналов, AC-3
Навигация по главам: есть

---[Information] [27.11.2017 19:49:40] x264 [info]: frame I:2063 Avg QP:14.79 size: 85482
---[Information] [27.11.2017 19:49:40] x264 [info]: frame P:50312 Avg QP:17.20 size: 34565
---[Information] [27.11.2017 19:49:40] x264 [info]: frame B:144227 Avg QP:19.08 size: 12026

Общее
Уникальный идентификатор : 233498659573673005973422901981645756126 (0xAFAA34BF58CDB78A993456DB7001D6DE)
Полное имя : M:\!Rips2017\Valerian and the City of a Thousand Planets\LIC\Valerian.and.the.City.of.a.Thousand.Planets.2017.BDRip-AVC.RUS.ENG..stalkerok.new-team.mkv
Формат : Matroska
Версия формата : Version 4 / Version 2
Размер файла : 4,26 Гбайт
Продолжительность : 2 ч. 16 м.
Общий поток : 4459 Кбит/сек
Название фильма : Valerian and the City of a Thousand Planets (2017) (Rip by stalkerok)
Дата кодирования : UTC 2018-01-01 16:51:48
Программа кодирования : mkvmerge v8.6.1 ('Flying') 64bit
Библиотека кодирования : libebml v1.3.3 + libmatroska v1.4.4

Видео
Идентификатор : 1
Формат : AVC
Формат/Информация : Advanced Video Codec
Профиль формата : High@L4.1
Параметр CABAC формата : Да
Параметр ReFrames формата : 12 кадров
Идентификатор кодека : V_MPEG4/ISO/AVC
Продолжительность : 2 ч. 16 м.
Битрейт : 3561 Кбит/сек
Ширина : 1152 пикселя
Высота : 482 пикселя
Соотношение сторон : 2,40:1
Режим частоты кадров : Постоянный
Частота кадров : 23,976 (24000/1001) кадра/сек
Цветовое пространство : YUV
Субдискретизация насыщенности : 4:2:0
Битовая глубина : 8 бит
Тип развёртки : Прогрессивная
Бит/(Пиксели*Кадры) : 0.267
Размер потока : 3,40 Гбайт (80%)
Заголовок : Valerian and the City of a Thousand Planets (2017) (Rip by stalkerok)
Библиотека кодирования : x264 core 152 r2851kMod ba24899
Настройки программы : cabac=1 / ref=12 / deblock=1:-3:-2 / analyse=0x3:0x133 / me=umh / subme=11 / psy=1 / fade_compensate=0.00 / psy_rd=1.00:0.00 / mixed_ref=1 / me_range=32 / chroma_me=1 / trellis=2 / 8x8dct=1 / cqm=0 / deadzone=21,11 / fast_pskip=0 / chroma_qp_offset=-2 / threads=12 / lookahead_threads=3 / sliced_threads=0 / nr=0 / decimate=1 / interlaced=0 / bluray_compat=0 / constrained_intra=0 / bframes=12 / b_pyramid=2 / b_adapt=2 / b_bias=0 / direct=3 / weightb=1 / open_gop=0 / weightp=2 / keyint=240 / keyint_min=23 / scenecut=40 / intra_refresh=0 / rc_lookahead=60 / rc=crf / mbtree=0 / crf=16.6000 / qcomp=0.65 / qpmin=0 / qpmax=69 / qpstep=4 / vbv_maxrate=50000 / vbv_bufsize=62500 / crf_max=0.0 / nal_hrd=none / filler=0 / ip_ratio=1.40 / pb_ratio=1.30 / aq=3:0.80 / zones=187049,196601,q=30
Default : Да
Forced : Нет

Аудио #1
Идентификатор : 2
Формат : AC-3
Формат/Информация : Audio Coding 3
Расширение режима : CM (complete main)
Параметр Endianness формата : Big
Идентификатор кодека : A_AC3
Продолжительность : 2 ч. 16 м.
Вид битрейта : Постоянный
Битрейт : 448 Кбит/сек
Каналы : 6 каналов
Расположение каналов : Front: L C R, Side: L R, LFE
Частота : 48,0 КГц
Частота кадров : 31,250 кадров/сек (1536 spf)
Метод сжатия : С потерями
Размер потока : 438 Мбайт (10%)
Язык : Russian
Default : Да
Forced : Нет

Аудио #2
Идентификатор : 3
Формат : AC-3
Формат/Информация : Audio Coding 3
Расширение режима : CM (complete main)
Параметр Endianness формата : Big
Идентификатор кодека : A_AC3
Продолжительность : 2 ч. 16 м.
Вид битрейта : Постоянный
Битрейт : 448 Кбит/сек
Каналы : 6 каналов
Расположение каналов : Front: L C R, Side: L R, LFE
Частота : 48,0 КГц
Частота кадров : 31,250 кадров/сек (1536 spf)
Метод сжатия : С потерями
Размер потока : 438 Мбайт (10%)
Язык : English
Default : Нет
Forced : Нет

Текст #1
Идентификатор : 4
Формат : UTF-8
Идентификатор кодека : S_TEXT/UTF8
Идентификатор кодека/Информация : UTF-8 Plain Text
Продолжительность : 2 ч. 8 м.
Битрейт : 1 бит/сек
Count of elements : 37
Размер потока : 1,39 Кбайт (0%)
Заголовок : Форсированные (компиляция Ash61 [v.3])
Язык : Russian
Default : Да
Forced : Нет

Текст #2
Идентификатор : 5
Формат : UTF-8
Идентификатор кодека : S_TEXT/UTF8
Идентификатор кодека/Информация : UTF-8 Plain Text
Продолжительность : 2 ч. 6 м.
Битрейт : 87 бит/сек
Count of elements : 1541
Размер потока : 81,3 Кбайт (0%)
Заголовок : Полные (по дубляжу набил Ash61)
Язык : Russian
Default : Нет
Forced : Нет

Текст #3
Идентификатор : 6
Формат : UTF-8
Идентификатор кодека : S_TEXT/UTF8
Идентификатор кодека/Информация : UTF-8 Plain Text
Продолжительность : 1 ч. 42 м.
Битрейт : 0 бит/сек
Count of elements : 21
Размер потока : 647 байт (0%)
Заголовок : Форсированные
Язык : Ukrainian
Default : Нет
Forced : Нет

Текст #4
Идентификатор : 7
Формат : UTF-8
Идентификатор кодека : S_TEXT/UTF8
Идентификатор кодека/Информация : UTF-8 Plain Text
Продолжительность : 3 м. 42 с.
Битрейт : 4 бит/сек
Count of elements : 6
Размер потока : 121 байт (0%)
Заголовок : Forced (BD 3D Nor)
Язык : English
Default : Нет
Forced : Нет

Текст #5
Идентификатор : 8
Формат : UTF-8
Идентификатор кодека : S_TEXT/UTF8
Идентификатор кодека/Информация : UTF-8 Plain Text
Продолжительность : 2 ч. 5 м.
Битрейт : 55 бит/сек
Count of elements : 1568
Размер потока : 51,3 Кбайт (0%)
Заголовок : Full
Язык : English
Default : Нет
Forced : Нет

Текст #6
Идентификатор : 9
Формат : UTF-8
Идентификатор кодека : S_TEXT/UTF8
Идентификатор кодека/Информация : UTF-8 Plain Text
Продолжительность : 2 ч. 13 м.
Битрейт : 57 бит/сек
Count of elements : 1630
Размер потока : 56,2 Кбайт (0%)
Заголовок : Full (with songs)
Язык : English
Default : Нет
Forced : Нет

Текст #7
Идентификатор : 10
Формат : UTF-8
Идентификатор кодека : S_TEXT/UTF8
Идентификатор кодека/Информация : UTF-8 Plain Text
Продолжительность : 2 ч. 13 м.
Битрейт : 63 бит/сек
Count of elements : 1906
Размер потока : 62,4 Кбайт (0%)
Заголовок : SDH
Язык : English
Default : Нет
Forced : Нет

Текст #8
Идентификатор : 11
Формат : UTF-8
Идентификатор кодека : S_TEXT/UTF8
Идентификатор кодека/Информация : UTF-8 Plain Text
Продолжительность : 2 ч. 13 м.
Битрейт : 113 бит/сек
Count of elements : 1906
Размер потока : 111 Кбайт (0%)
Заголовок : SDH Colored
Язык : English
Default : Нет
Forced : Нет

Меню
00:00:00.000 : en:Chapter 1
00:11:12.213 : en:Chapter 2
00:20:10.500 : en:Chapter 3
00:30:38.336 : en:Chapter 4
00:41:21.562 : en:Chapter 5
00:51:37.344 : en:Chapter 6
01:01:54.919 : en:Chapter 7
01:10:50.996 : en:Chapter 8
01:20:27.489 : en:Chapter 9
01:34:23.741 : en:Chapter 10
01:44:35.102 : en:Chapter 11
01:57:01.723 : en:Chapter 12
02:06:18.195 : en:Chapter 13
скриншот   скриншот   скриншот   скриншот   скриншот   скриншот   скриншот   скриншот   скриншот  
pb.wtf



Скачать Валериан и город тысячи планет через торрент http://i6.imageban.ru/out/2017/09/18/2ff75c0c358795c5946784cc1680714d.png Скачать фильм Валериан и город тысячи планет через торрент бесплантно в хорошем качестве Описание:2700 год. Валериан и Лорелин - космические спецагенты, которые по долгу службы впутались в подозрительное дело и стали невольными ... 9.4 10 36
Info! Золотая раздача, скачанное не засчитывается.
Торрент: Зарегистрирован [2018-01-01 18:15] · скачан: 894 раз
Статус: √ проверено
Размер: 4.26 GB
Как cкачать? Как скачать Валериан и город тысячи планет через торрент | UTorrent

% Раздел Тема Автор DL S | L
Фильмы (HD 720p, 1080p) (48-60 fps) [ 5.92 GB ] Валериан и город тысячи планет / Valerian and the City of a Thousand Planets [2017 BDRip 720p 60 fps от еnvy / NNNB] NOR-Transfer | DUB еnvy Скачать
14 | 1
Ultra HD (UHD: 2K, 4K, 8K) — видео сверхвысокой чёткости [ 59.55 GB ] Валериан и город тысячи планет / Valerian and the City of a Thousand Planets [2017 UHD Blu-ray 2160p] - [] sheker187 Скачать
1 | 0
Ultra HD (UHD: 2K, 4K, 8K) — видео сверхвысокой чёткости [ 51.03 GB ] Валериан и город тысячи планет / Valerian and the City of a Thousand Planets [2017 UHD BDRemux 2160p] DUB [Dolby Vision] sheker187 Скачать
1 | 0
Фильмы (HD 720p, 1080p) (48-60 fps) [ 20.2 GB ] Валериан и город тысячи планет / Valerian and the City of a Thousand Planets [2017 NOR-Transfer BDRip 1080p / 60 FPS Dub Original] Tiberiumsun69 Скачать
10 | 0
Фильмы с авторской озвучкой [ 2.75 GB ] Валериан и город тысячи планет / Valerian and the City of a Thousand Planets [2017 BDRip] 2x[AVO] killermax2013 Скачать
1 | 0
Фильмы [HD 720p, 1080p] (Хороший звук DUB, MVO) [ 6.14 GB ] Валериан и город тысячи планет / Valerian and the City of a Thousand Planets [2017 BDRip 720p] [NOR-Transfer] DUB [] potroks Скачать
2 | 0
Фильмы [HD 720p, 1080p] (Хороший звук DUB, MVO) [ 8.18 GB ] Валериан и город тысячи планет / Valerian and the City of a Thousand Planets [2017 BDRip-HEVC 1080p] [] + [AVO] killermax2013 Скачать
1 | 0


Последний раз редактировалось: sokol_ok (2018-01-01 18:15), всего редактировалось 1 раз

28-11-2019 20:33  

Отключить всю рекламу на сайте

28-11-2017 10:45 Валериан и город тысячи планет Скачать торрент  

Звук обновлен на iTunespb.wtf



01-01-2018 18:16 Валериан и город тысячи планет Скачать торрент  

Замена на звук с Blu-ray RUSpb.wtf



    Дорогой пользователь! Огромная просьба, поблагодарите релизера, оцените раздачу и оставьте свои комментарий, если Вы скачали Валериан и город тысячи планет через торрент бесплатно! Внесите свою лепту в развитие PiratBit!
    Комментировать посты могут только пользователи прошедшие не сложную регистрацию
    Показать сообщения:    

    Валериан и город тысячи планет через торрент
    Скачать бесплатно Валериан и город тысячи планет
    Валериан и город тысячи планет скачать торрент
    Валериан и город тысячи планет смотреть онлайн
    Cкачать фильм Валериан и город тысячи планет бесплатно
    Валериан и город тысячи планет скачать торрент в хорошем качестве
    Валериан и город тысячи планет смотреть онлайн бесплатно в хорошем качестве


    Вы не можете начинать темы
    Вы не можете отвечать на сообщения
    Вы не можете редактировать свои сообщения
    Вы не можете удалять свои сообщения
    Вы не можете голосовать в опросах
    Вы не можете прикреплять файлы к сообщениям
    Вы можете скачивать файлы