Death Stranding+DLC+АВТОАКТИВАЦИЯ

iTunes

iTunes

iTunes

1

iTunes

iTunes

iTunes

iTunes

iTunes

30
pack

$ от Little Big

ВАЖНО

!!Акция!!

Alien_RageХит недели

RePack

Resident Evil 21

ИГРА 18+

pack

RePack

jed

!!Акция!!

Alien_Rage

RePack

fifa19

RePack

Assassins Creed: Odyssey

RePack

NEED FOR SPEED™ PAYBACK

4 сезон

9 сезон

Бесстыжие 9 сезон

Все сериалы

все сериалы на PB.wtf

RePack

FAR CRY 5
  

Ночлежка / Crash Pad (Кевин Тент) [2017, Комедия, WEB-DL 1080p] MVO [Лицензия / iTunes] pb.wtf

Ночлежка через торрент pb.wtf

Размер: 3.48 GB | Добавлен: 2 года 7 мес. назад | Торрент скачан:140 раз
Скачать  

28-11-2017 05:11 Ночлежка Скачать торрент  

Ночлежка / Crash PadГод выпуска: 2017
Страна: США
Жанр: Комедия
Продолжительность: 01:33:17
Перевод: Профессиональный многоголосый [Лицензия / iTunes]
Субтитры: Русские (forced, full), английские

Режиссер: Кевин Тент

rating

В ролях:

Нина Добрев, Донал Глисон, Кристина Эпплгейт, Томас Хейден Чёрч, Алийа О’Брайен, Анна Ван Хуфт, Бриттни Ирвин, Нилс Дж Хонестад, Аня Савчич, Владимир Рузич

Описание:

Стенслэнд, простак и безнадёжный романтик, верит, что обрёл истинную любовь в лице красавицы Морган. Однако для неё молодой любовник — лишь способ отомстить беспутному мужу, на что тот отвечает равноценной монетой, начав разгульную холостяцкую жизнь… в доме Стенслэнда.

Качество: WEB-DL 1080p
Формат: MKV
Видео кодек: H.264
Аудио кодек: AC3

Видео: MPEG-4 AVC, 1920x804, 4569 Kbit/s, 23.976 fps
Аудио#1: 48 kHz, AC3, 5.1, 384 Kbps | iTunes | RUS |
Аудио#2: 48 kHz, AC3, 5.1, 384 Kbps | Оригинал | ENG |

Релиз от:
скриншот   скриншот   скриншот   скриншот   скриншот  

General
Unique ID : 180668172958705519727881213264429937625 (0x87EB6CA76FF261D4A4485431D21173D9)
Complete name : G:Crash.Pad.2017.WEB-DL.1080p.ExKinoRay.mkv
Format : Matroska
Format version : Version 4 / Version 2
File size : 3.48 GiB
Duration : 1 h 33 min
Overall bit rate : 5 338 kb/s
Encoded date : UTC 2017-11-27 19:50:30
Writing application : mkvmerge v17.0.0 ('Be Ur Friend') 64-bit
Writing library : libebml v1.3.5 + libmatroska v1.4.8

Video
ID : 1
Format : AVC
Format/Info : Advanced Video Codec
Format profile : High@L4
Format settings : CABAC / 5 Ref Frames
Format settings, CABAC : Yes
Format settings, RefFrames : 5 frames
Codec ID : V_MPEG4/ISO/AVC
Duration : 1 h 33 min
Bit rate : 4 569 kb/s
Width : 1 920 pixels
Height : 804 pixels
Display aspect ratio : 2.40:1
Frame rate mode : Constant
Frame rate : 23.976 (23976/1000) FPS
Color space : YUV
Chroma subsampling : 4:2:0
Bit depth : 8 bits
Scan type : Progressive
Bits/(Pixel*Frame) : 0.123
Stream size : 2.98 GiB (86%)
Language : English
Default : Yes
Forced : No
Color range : Limited
Color primaries : BT.709
Transfer characteristics : BT.709
Matrix coefficients : BT.709

Audio #1
ID : 2
Format : AC-3
Format/Info : Audio Coding 3
Format settings, Endianness : Big
Codec ID : A_AC3
Duration : 1 h 33 min
Bit rate mode : Constant
Bit rate : 384 kb/s
Channel(s) : 6 channels
Channel positions : Front: L C R, Side: L R, LFE
Sampling rate : 48.0 kHz
Frame rate : 31.250 FPS (1536 SPF)
Bit depth : 16 bits
Compression mode : Lossy
Stream size : 256 MiB (7%)
Title : iTunes
Language : Russian
Service kind : Complete Main
Default : Yes
Forced : No

Audio #2
ID : 3
Format : AC-3
Format/Info : Audio Coding 3
Format settings, Endianness : Big
Codec ID : A_AC3
Duration : 1 h 33 min
Bit rate mode : Constant
Bit rate : 384 kb/s
Channel(s) : 6 channels
Channel positions : Front: L C R, Side: L R, LFE
Sampling rate : 48.0 kHz
Frame rate : 31.250 FPS (1536 SPF)
Bit depth : 16 bits
Compression mode : Lossy
Stream size : 256 MiB (7%)
Title : Original
Language : English
Service kind : Complete Main
Default : No
Forced : No

Text #1
ID : 4
Format : UTF-8
Codec ID : S_TEXT/UTF8
Codec ID/Info : UTF-8 Plain Text
Duration : 1 h 28 min
Bit rate : 1 b/s
Count of elements : 17
Stream size : 768 Bytes (0%)
Title : Forced
Language : Russian
Default : Yes
Forced : No

Text #2
ID : 5
Format : UTF-8
Codec ID : S_TEXT/UTF8
Codec ID/Info : UTF-8 Plain Text
Duration : 1 h 32 min
Bit rate : 129 b/s
Count of elements : 1534
Stream size : 87.6 KiB (0%)
Title : Full
Language : Russian
Default : No
Forced : No

Text #3
ID : 6
Format : UTF-8
Codec ID : S_TEXT/UTF8
Codec ID/Info : UTF-8 Plain Text
Duration : 1 h 32 min
Bit rate : 81 b/s
Count of elements : 1646
Stream size : 54.8 KiB (0%)
Title : Full
Language : English
Default : No
Forced : No

Menu
00:00:00.000 : en:1
00:06:02.487 : en:2
00:11:05.706 : en:3
00:16:22.105 : en:4
00:22:13.623 : en:5
00:28:15.443 : en:6
00:32:13.347 : en:7
00:38:15.083 : en:8
00:44:03.222 : en:9
00:50:01.538 : en:10
00:54:30.557 : en:11
01:01:33.688 : en:12
01:05:48.901 : en:13
01:12:32.137 : en:14
01:16:51.396 : en:15
01:22:24.479 : en:16

pb.wtf



Скачать Ночлежка через торрент http://s008.radikal.ru/i304/1711/44/8aaeee5a9b91.jpg Скачать фильм Ночлежка через торрент бесплантно в хорошем качестве Описание: Стенслэнд, простак и безнадёжный романтик, верит, что обрёл истинную любовь в лице красавицы Морган. Однако для неё молодой ... 9.5 10 10
Торрент: Зарегистрирован [2017-11-28 05:11] · скачан: 140 раз
Статус: √ проверено
Размер: 3.48 GB
Как cкачать? Как скачать Ночлежка через торрент | qTorrent

% Раздел Тема Автор DL S | L
Фильмы 2017 [DVDrip, WEB-DLRip, HDrip] (DUB, MVO) [ 1.46 GB ] Ночлежка / Crash Pad [2017 WEB-DLRip многоголосый / ] oleg8 Скачать
1 | 0

28-11-2019 20:33  

Отключить всю рекламу на сайте

28-11-2017 17:35 Ночлежка Скачать торрент  

европейскаяpb.wtf



    Дорогой пользователь! Огромная просьба, поблагодарите релизера, оцените раздачу и оставьте свои комментарий, если Вы скачали Ночлежка через торрент бесплатно! Внесите свою лепту в развитие PiratBit!
    Комментировать посты могут только пользователи прошедшие не сложную регистрацию
    Показать сообщения:    

    Ночлежка через торрент
    Скачать бесплатно Ночлежка
    Ночлежка скачать торрент
    Ночлежка смотреть онлайн
    Cкачать фильм Ночлежка бесплатно
    Ночлежка скачать торрент в хорошем качестве
    Ночлежка смотреть онлайн бесплатно в хорошем качестве


    Вы не можете начинать темы
    Вы не можете отвечать на сообщения
    Вы не можете редактировать свои сообщения
    Вы не можете удалять свои сообщения
    Вы не можете голосовать в опросах
    Вы не можете прикреплять файлы к сообщениям
    Вы можете скачивать файлы