новый адрес
Мега распродажа FORZA HORIZON 4 ULTIMATE+ВСЕ DLC+ОНЛАЙН всего за 499р. 349 руб. (супер цена). Внимание количество ограничено!!!

iTunes

1+1

iTunes

мы

iTunes

1

iTunes

Чернобыль

iTunes

Ральф против интернета

Лицензия

ПШазам

Лицензия

Игра престолов

Лицензия

30
pack

ВАЖНО

!!Акция!!

Alien_RageХит недели

RePack

Resident Evil 21

ИГРА 18+

pack

RePack

Metro:Exodus

!!Акция!!

Alien_Rage

RePack

fifa19

RePack

Assassins Creed: Odyssey

RePack

NEED FOR SPEED™ PAYBACK

3 сезон

9 сезон

Бесстыжие 9 сезон

Все сериалы

все сериалы на PB.wtf

RePack

FAR CRY 5
Ребята, катастрофически не хватает 1900р. для оплаты серверов за Октябрь (всвязи с блокировками трафик упал в 3 раза), 1-2р., выручайте.
  

День последний, день первый (Сико Долидзе) [1959, СССР, драма, мелодрама, SATRip-AVC от AVP Studio] pb.wtf

День последний, день первый через торрент pb.wtf

Размер: 1.09 GB | Добавлен: 1 год 11 мес. назад | Торрент скачан:18 раз
Скачать  

28-11-2017 09:49 День последний, день первый Скачать торрент  

День последний, день первый
Страна: СССР
Производство: Грузия-фильм

Жанр: драма, мелодрама
Год выпуска: 1959
Продолжительность: 01:19:25

Перевод: Не требуется
Cубтитры: нет
Оригинальная аудиодорожка: русский

Режиссер: Сико Долидзе

В ролях:
Серго Закариадзе, Белла Мирианашвили, Малхаз Горгиладзе, Акакий Васадзе, Динара Жоржолиани, Отар Коберидзе, Ладо Авалиани, Гиули Чохонелидзе, Григорий (Григол) Ткабладзе, Гиви Тохадзе, Медея Чахава, Меги Цулукидзе...
Об актёрах подробней

Описание:
Сегодня старый почтальон Георгий (Серго Закариадзе) в последний раз выходит на работу – завтра он уходит на пенсию. Вместе с ним Ламара - она не поступила в институт, и по путевке райкома комсомола пришла работать на почту. Георгий знакомит девушку с людьми, которым ей предстоит разносить письма и телеграммы.

Исходник: DVB
Качество видео: SATRip-AVC
Формат видео: MKV

Видео: 704->748х562 (4:3), 25 fps, AVC ~ 1726 kbps avg, 0.174 bit/pixel
Аудио: 48 kHz, Dolby Digital AC3 2.0, 192 kbps

Раздача от:
Общее
Полное имя : Den.posledniy.den.pervyy.1959.SATRip-AVC_[New-team]_by_AVP_Studio.mkv
Формат : Matroska
Версия формата : Version 4 / Version 2
Размер файла : 1,09 Гбайт
Продолжительность : 1 ч. 19 м.
Общий поток : 1957 Кбит/сек
Программа кодирования : Lavf57.71.100
Библиотека кодирования : Lavf57.71.100
ErrorDetectionType : Per level 1

Видео
Идентификатор : 1
Формат : AVC
Формат/Информация : Advanced Video Codec
Профиль формата : High@L4.1
Настройки формата : CABAC / 10 Ref Frames
Параметр CABAC формата : Да
Параметр RefFrames формата : 10 кадров
Идентификатор кодека : V_MPEG4/ISO/AVC
Продолжительность : 1 ч. 19 м.
Битрейт : 1726 Кбит/сек
Ширина : 704 пикселя
Высота : 562 пикселя
Соотношение сторон : 4:3
Режим частоты кадров : Постоянный
Частота кадров : 25,000 кадров/сек
Цветовое пространство : YUV
Субдискретизация насыщенности : 4:2:0
Битовая глубина : 8 бит
Тип развёртки : Прогрессивная
Бит/(Пиксели*Кадры) : 0.174
Размер потока : 981 Мбайт (88%)
Default : Да
Forced : Нет

Аудио
Идентификатор : 2
Формат : AC-3
Формат/Информация : Audio Coding 3
Идентификатор кодека : A_AC3
Продолжительность : 1 ч. 19 м.
Вид битрейта : Постоянный
Битрейт : 192 Кбит/сек
Каналы : 2 канала
Расположение каналов : Front: L R
Частота : 48,0 КГц
Частота кадров : 31,250 кадров/сек (1536 SPF)
Битовая глубина : 16 бит
Метод сжатия : С потерями
Задержка видео : -240 мс.
Размер потока : 109 Мбайт (10%)
Default : Да
Forced : Нет
pb.wtf



Скачать День последний, день первый через торрент http://s018.radikal.ru/i501/1711/93/40c290d6654a.png Скачать фильм День последний, день первый через торрент бесплантно в хорошем качестве Описание:Сегодня старый почтальон Георгий (Серго Закариадзе) в последний раз выходит на работу – завтра он уходит на пенсию. Вместе с ним ... 10 10 1
Info! Золотая раздача, скачанное не засчитывается.
Торрент: Зарегистрирован [2017-11-28 09:49] · скачан: 18 раз
Статус: √ проверено
Размер: 1.09 GB
Как cкачать? Как скачать День последний, день первый через торрент | qTorrent

% Раздел Тема Автор DL S | L
Кино СССР [ 743 MB ] День последний день первый [1959 СССР SATRip от AVP Studio] AVP Studio Скачать
1 | 0
Кино СССР [ 1.09 GB ] День последний день первый [1959 СССР SATRip от AVP Studio] AVP Studio Скачать
1 | 0


>> Регистрируемся здесь <<






Отзывы и комментарии о схеме читаем и пишем здесь: ---> Отзывы и комментарии о схеме

Новые благодарочки в телеграм довольных пользователей:
скриншот   скриншот   скриншот   скриншот   скриншот
    Дорогой пользователь! Огромная просьба, поблагодарите релизера, оцените раздачу и оставьте свои комментарий, если Вы скачали День последний, день первый через торрент бесплатно! Внесите свою лепту в развитие PiratBit!
    Комментировать посты могут только пользователи прошедшие не сложную регистрацию
    Показать сообщения:    

    День последний, день первый через торрент
    Скачать бесплатно День последний, день первый
    День последний, день первый скачать торрент
    День последний, день первый смотреть онлайн
    Cкачать фильм День последний, день первый бесплатно
    День последний, день первый скачать торрент в хорошем качестве
    День последний, день первый смотреть онлайн бесплатно в хорошем качестве


    Вы не можете начинать темы
    Вы не можете отвечать на сообщения
    Вы не можете редактировать свои сообщения
    Вы не можете удалять свои сообщения
    Вы не можете голосовать в опросах
    Вы не можете прикреплять файлы к сообщениям
    Вы можете скачивать файлы