Ссылка на приватное зеркало всего за 1$. Внимание количество ограничено!!!

iTunes

iTunes

iTunes

1

iTunes

iTunes

iTunes

iTunes

iTunes

30
pack

$ от Little Big

ВАЖНО

!!Акция!!

Alien_RageХит недели

RePack

Resident Evil 21

ИГРА 18+

pack

RePack

jed

!!Акция!!

Alien_Rage

RePack

fifa19

RePack

Assassins Creed: Odyssey

RePack

NEED FOR SPEED™ PAYBACK

4 сезон

9 сезон

Бесстыжие 9 сезон

Все сериалы

все сериалы на PB.wtf

RePack

FAR CRY 5
  

В гостях у Элис / Home Again (Холли Мейерс-Шайер) [2017, драма, мелодрама, комедия, WEB-DL 1080p] DUB [iTunes] pb.wtf

В гостях у Элис через торрент pb.wtf

Размер: 4.03 GB | Добавлен: 2 года 7 мес. назад | Торрент скачан:417 раз
Скачать  

28-11-2017 17:48 В гостях у Элис Скачать торрент  

В гостях у Элис / Home AgainГод выпуска: 2017
Страна: США
Жанр: драма, мелодрама, комедия
Продолжительность: 01:37:15
Перевод: Дублированный | iTunes
Субтитры: Английские

Режиссер: Холли Мейерс-Шайер

rating

В ролях:

Риз Уизерспун, Майкл Шин, Нат Вулф, Лэйк Белл, Пико Александр, Кэндис Берген, Лола Флэнери, Джон Рудницкий, Кристин Вудс, Рейд Скотт

Описание:

Жизнь матери-одиночки из Лос-Анджелеса неожиданно меняется, когда она разрешает трем парням пожить у нее.

Качество: WEB-DL 1080p
Формат: MKV
Видео кодек: H.264
Аудио кодек: AC3

Видео: MPEG-4 AVC, 1916x1032, 5165 Kbit/s, 23.976 fps
Аудио#1: 48 kHz, AC3, 5.1, 384 Kbps | Дублированный | iTunes | RUS |
Аудио#2: 48 kHz, AC3, 5.1, 384 Kbps | Оригинал | ENG |

Релиз от:
скриншот   скриншот   скриншот   скриншот   скриншот  

General
Unique ID : 247683340327574033889872728476420601404 (0xBA561380F18EB62DA69A0C25394EF63C)
Complete name : G:Home.Again.2017.WEB-DL.1080p.ExKinoRay.mkv
Format : Matroska
Format version : Version 4 / Version 2
File size : 4.03 GiB
Duration : 1 h 37 min
Overall bit rate : 5 931 kb/s
Encoded date : UTC 2017-11-28 01:56:07
Writing application : mkvmerge v17.0.0 ('Be Ur Friend') 64-bit
Writing library : libebml v1.3.5 + libmatroska v1.4.8

Video
ID : 1
Format : AVC
Format/Info : Advanced Video Codec
Format profile : High@L4
Format settings : CABAC / 4 Ref Frames
Format settings, CABAC : Yes
Format settings, RefFrames : 4 frames
Codec ID : V_MPEG4/ISO/AVC
Duration : 1 h 37 min
Bit rate : 5 165 kb/s
Width : 1 916 pixels
Height : 1 032 pixels
Display aspect ratio : 1.85:1
Frame rate mode : Constant
Frame rate : 23.976 (23976/1000) FPS
Color space : YUV
Chroma subsampling : 4:2:0
Bit depth : 8 bits
Scan type : Progressive
Bits/(Pixel*Frame) : 0.109
Stream size : 3.51 GiB (87%)
Language : English
Default : Yes
Forced : No
Color range : Limited
Color primaries : BT.709
Transfer characteristics : BT.709
Matrix coefficients : BT.709

Audio #1
ID : 2
Format : AC-3
Format/Info : Audio Coding 3
Format settings, Endianness : Big
Codec ID : A_AC3
Duration : 1 h 37 min
Bit rate mode : Constant
Bit rate : 384 kb/s
Channel(s) : 6 channels
Channel positions : Front: L C R, Side: L R, LFE
Sampling rate : 48.0 kHz
Frame rate : 31.250 FPS (1536 SPF)
Bit depth : 16 bits
Compression mode : Lossy
Stream size : 267 MiB (6%)
Title : iTunes
Language : Russian
Service kind : Complete Main
Default : Yes
Forced : No

Audio #2
ID : 3
Format : AC-3
Format/Info : Audio Coding 3
Format settings, Endianness : Big
Codec ID : A_AC3
Duration : 1 h 37 min
Bit rate mode : Constant
Bit rate : 384 kb/s
Channel(s) : 6 channels
Channel positions : Front: L C R, Side: L R, LFE
Sampling rate : 48.0 kHz
Frame rate : 31.250 FPS (1536 SPF)
Bit depth : 16 bits
Compression mode : Lossy
Stream size : 267 MiB (6%)
Title : Original
Language : English
Service kind : Complete Main
Default : No
Forced : No

Text
ID : 4
Format : UTF-8
Codec ID : S_TEXT/UTF8
Codec ID/Info : UTF-8 Plain Text
Duration : 1 h 31 min
Bit rate : 98 b/s
Count of elements : 1711
Stream size : 65.6 KiB (0%)
Language : English
Default : No
Forced : No

Menu
00:00:00.000 : en:1
00:06:01.111 : en:2
00:11:01.286 : en:3
00:16:55.223 : en:4
00:20:12.211 : en:5
00:25:09.132 : en:6
00:29:38.276 : en:7
00:35:05.353 : en:8
00:40:24.088 : en:9
00:46:33.916 : en:10
00:51:48.355 : en:11
00:54:49.160 : en:12
00:59:21.140 : en:13
01:03:17.209 : en:14
01:09:24.284 : en:15
01:15:04.123 : en:16
01:17:20.759 : en:17
01:21:09.696 : en:18
01:27:52.306 : en:19
01:32:43.096 : en:20

pb.wtf



Скачать В гостях у Элис через торрент http://s16.radikal.ru/i190/1711/fb/894768c71fb6.jpg Скачать фильм В гостях у Элис через торрент бесплантно в хорошем качестве Описание: Жизнь матери-одиночки из Лос-Анджелеса неожиданно меняется, когда она разрешает трем парням пожить у ... 9 10 11
Торрент: Зарегистрирован [2017-11-28 17:48] · скачан: 417 раз
Статус: √ проверено
Размер: 4.03 GB
Как cкачать? Как скачать В гостях у Элис через торрент | qTorrent

% Раздел Тема Автор DL S | L
Фильмы 2017 [DVDrip, WEB-DLRip, HDrip] (DUB, MVO) [ 749 MB ] В гостях у Элис / Home Again [2017 HDRip] bober100 Скачать
1 | 0
Фильмы [HD 720p, 1080p] (Хороший звук DUB, MVO) [ 10.03 GB ] В гостях у Элис / Home Again [2017 BDRip 1080p] bober100 Скачать
1 | 0
Фильмы [HD 720p, 1080p] (Хороший звук DUB, MVO) [ 5.1 GB ] В гостях у Элис / Home Again [2017 BDRip 720p] bober100 Скачать
1 | 0
Фильмы 2017 [DVDrip, WEB-DLRip, HDrip] (DUB, MVO) [ 1.42 GB ] В гостях у Элис / Home Again [2017 BDRip] - Twi7ter Скачать
1 | 0
Фильмы 2017 [DVDrip, WEB-DLRip, HDrip] (DUB, MVO) [ 1.46 GB ] В гостях у Элис / Home Again [2017 HDRip ""] coc900 Скачать
1 | 0
Фильмы (Blu-ray, BD-Remux, HDDVD) [ 26.03 GB ] В гостях у Элис / Home Again [2017 BD Remux 1080p] bober100 Скачать
1 | 0


Последний раз редактировалось: bober100 (2017-11-28 18:29), всего редактировалось 1 раз

28-11-2019 20:33  

Отключить всю рекламу на сайте

28-11-2017 18:24 В гостях у Элис Скачать торрент  

Продолжительность фильма 1 ч. 37 м. 19 с,кто "проверял" раздачу?pb.wtf



28-11-2017 18:30 В гостях у Элис Скачать торрент  

coc900 писал(а):

Продолжительность фильма 1 ч. 37 м. 19 с,кто "проверял" раздачу?

Правильно вот 01:37:15pb.wtf



28-11-2017 18:43 В гостях у Элис Скачать торрент  

'Правильно вот 01:37:15 ",а изначально сколько стояло 01:38:13.откуда такие цифры?pb.wtf



28-11-2017 19:21 В гостях у Элис Скачать торрент  

coc900 писал(а):

'Правильно вот 01:37:15 ",а изначально сколько стояло 01:38:13.откуда такие цифры?

Стесняюсь спросить, в чем разница то?pb.wtf



28-11-2017 19:22 В гостях у Элис Скачать торрент  

coc900, Это было от кашары просто не посмотрел. Спасибо что подсказал.pb.wtf



28-11-2017 19:26 В гостях у Элис Скачать торрент  

off_46_ писал(а):

coc900 писал(а):

'Правильно вот 01:37:15 ",а изначально сколько стояло 01:38:13.откуда такие цифры?

Стесняюсь спросить, в чем разница то?

Шлак с рекламой, это чистый тунец без всего.pb.wtf



29-11-2017 18:20 В гостях у Элис Скачать торрент  

bober100 писал(а):

coc900, Это было от кашары просто не посмотрел. Спасибо что подсказал.

Да пожалуйста.А зачем от кашары? Почему от себя не делаешь?pb.wtf



    Дорогой пользователь! Огромная просьба, поблагодарите релизера, оцените раздачу и оставьте свои комментарий, если Вы скачали В гостях у Элис через торрент бесплатно! Внесите свою лепту в развитие PiratBit!
    Комментировать посты могут только пользователи прошедшие не сложную регистрацию
    Показать сообщения:    

    В гостях у Элис через торрент
    Скачать бесплатно В гостях у Элис
    В гостях у Элис скачать торрент
    В гостях у Элис смотреть онлайн
    Cкачать фильм В гостях у Элис бесплатно
    В гостях у Элис скачать торрент в хорошем качестве
    В гостях у Элис смотреть онлайн бесплатно в хорошем качестве


    Вы не можете начинать темы
    Вы не можете отвечать на сообщения
    Вы не можете редактировать свои сообщения
    Вы не можете удалять свои сообщения
    Вы не можете голосовать в опросах
    Вы не можете прикреплять файлы к сообщениям
    Вы можете скачивать файлы