2 сезон

iTunes

MVO

1

2 сезон

iTunes

iTunes

1 сезон

RePack

30

Новинка

ВАЖНО

ИГРА 18+

pack

RePack

MK11
pack

Легкие деньги

RePack

jed

RePack

fifa19

RePack

RDR2

RePack

NEED FOR SPEED™ PAYBACK

4 сезон

9 сезон

Бесстыжие 9 сезон

Все сериалы

все сериалы на PB.wtf

RePack

FAR CRY 5

Anonymous, доброе утро, мы не успеваем собрать деньги на оплату серверов за декабрь и январь, помогите нам пожалуйста в это трудное время. В качестве благодарности мы отключим Вам всю рекламу на сайте (укажите свой ник в строку Ваше имя)!

×
  
Magnet ссылка

В гостях у Элис / Home Again (Холли Мейерс-Шайер) [2017 г., драма, мелодрама, комедия, HDRip, Дубляж "iTunes"] pb.wtf

В гостях у Элис через торрент pb.wtf

Размер: 1.46 GB | Добавлен: 3 года 1 мес. назад | Торрент скачан:222 раза
Скачать  

28-11-2017 18:19 В гостях у Элис Скачать торрент  

В гостях у Элис / Home Again
Год выпуска: 2017
Страна: США / Black Bicycle Entertainment
Жанр: драма, мелодрама, комедия
Продолжительность: 01:37:15
Перевод: Дубляж (iTunes)

Режиссер: Холли Мейерс-Шайер

rating

В ролях: Риз Уизерспун, Майкл Шин, Нат Вулф, Лэйк Белл, Пико Александр, Кэндис Берген, Лола Флэнери, Джон Рудницкий, Кристин Вудс, Рейд Скотт

Описание: Жизнь матери-одиночки из Лос-Анджелеса неожиданно меняется, когда она разрешает трем парням пожить у нее.

Качество: HDRip
Формат: AVI
Видео кодек: XviD
Аудио кодек: AC3
Видео: 720x384 (1.88:1), 23.976 fps, XviD build 50 ~1755 kbps avg, 0.26 bit/pixel
Аудио: 48 kHz, AC3 Dolby Digital, 3/2 (L,C,R,l,r) + LFE ch, ~384 kbps
скриншот   скриншот   скриншот   скриншот  

Общее
Полное имя : F:\ФИЛЬМЫ\В гостях у Элис.2017.D.HDRip.avi
Формат : AVI
Формат/Информация : Audio Video Interleave
Размер файла : 1,46 Гбайт
Продолжительность : 1 ч. 37 м.
Общий поток : 2149 Кбит/сек
Программа кодирования : VirtualDubMod 1.5.10.3 | www.virtualdub-fr.org || (build 2550/release)
Библиотека кодирования : VirtualDubMod build 2550/release

Видео
Идентификатор : 0
Формат : MPEG-4 Visual
Профиль формата : Advanced Simple@L5
Настройки формата : BVOP1
Параметр BVOP формата : 1
Параметр QPel формата : Нет
Параметр GMC формата : Без точки перехода
Параметр матрицы формата : Default (MPEG)
Идентификатор кодека : XVID
Идентификатор кодека/Подсказка : XviD
Продолжительность : 1 ч. 37 м.
Битрейт : 1755 Кбит/сек
Ширина : 720 пикселей
Высота : 384 пикселя
Соотношение сторон : 1,85:1
Частота кадров : 23,976 (24000/1001) кадра/сек
Цветовое пространство : YUV
Субдискретизация насыщенности : 4:2:0
Битовая глубина : 8 бит
Тип развёртки : Прогрессивная
Метод сжатия : С потерями
Бит/(Пиксели*Кадры) : 0.265
Размер потока : 1,19 Гбайт (82%)
Библиотека кодирования : XviD 1.2.1 (UTC 2008-12-04)

Аудио
Идентификатор : 1
Формат : AC-3
Формат/Информация : Audio Coding 3
Идентификатор кодека : 2000
Продолжительность : 1 ч. 37 м.
Вид битрейта : Постоянный
Битрейт : 384 Кбит/сек
Каналы : 6 каналов
Расположение каналов : Front: L C R, Side: L R, LFE
Частота : 48,0 КГц
Частота кадров : 31,250 кадров/сек (1536 SPF)
Битовая глубина : 16 бит
Метод сжатия : С потерями
Размер потока : 267 Мбайт (18%)
Выравнивание : Разделение по промежуткам
Продолжительность промежутка : 42 мс. (1,00 видеокадр)
Время предзагрузки промежутка : 500 мс.
ServiceKind/String : Complete Main

pb.wtf



Скачать В гостях у Элис через торрент https://pic1.kartinco.top/images/11/vtnz4.jpg Скачать фильм В гостях у Элис через торрент бесплантно в хорошем качестве Описание: Жизнь матери-одиночки из Лос-Анджелеса неожиданно меняется, когда она разрешает трем парням пожить у ... 7.7 10 11
Торрент: Зарегистрирован [2017-12-05 18:21] · скачан: 222 раз
Статус: √ проверено
Размер: 1.46 GB
Как cкачать? Как скачать В гостях у Элис через торрент | UTorrent

% Раздел Тема Автор DL S | L
Фильмы 2017 [DVDrip, WEB-DLRip, HDrip] (DUB, MVO) [ 749 MB ] В гостях у Элис / Home Again [2017 HDRip] bober100 Скачать
1 | 0
Фильмы [HD 720p, 1080p] (Хороший звук DUB, MVO) [ 10.03 GB ] В гостях у Элис / Home Again [2017 BDRip 1080p] bober100 Скачать
1 | 0
Фильмы [HD 720p, 1080p] (Хороший звук DUB, MVO) [ 5.1 GB ] В гостях у Элис / Home Again [2017 BDRip 720p] bober100 Скачать
1 | 0
Фильмы 2017 [DVDrip, WEB-DLRip, HDrip] (DUB, MVO) [ 1.42 GB ] В гостях у Элис / Home Again [2017 BDRip] - Twi7ter Скачать
1 | 0
Фильмы (Blu-ray, BD-Remux, HDDVD) [ 26.03 GB ] В гостях у Элис / Home Again [2017 BD Remux 1080p] bober100 Скачать
1 | 0
Фильмы (WEB-DL 720p, 1080p) [ 4.03 GB ] В гостях у Элис / Home Again [2017 WEB-DL 1080p] bober100 Скачать
1 | 0


Последний раз редактировалось: coc900 (2017-12-06 04:29), всего редактировалось 1 раз

28-11-2019 20:33  

Отключить всю рекламу на сайте

05-12-2017 18:23 В гостях у Элис Скачать торрент  

Релиз обновлен ! Просьба перекачать торрент файл!pb.wtf



05-12-2017 19:06 В гостях у Элис Скачать торрент  

coc900 писал(а):

Видео: 720x384

coc900, скриншоты не соответствуют заявленному разрешению, перезалейте.pb.wtf



06-12-2017 04:30 В гостях у Элис Скачать торрент  

-Lexx-, исправилpb.wtf



    Дорогой пользователь! Огромная просьба, поблагодарите релизера, оцените раздачу и оставьте свои комментарий, если Вы скачали В гостях у Элис через торрент бесплатно! Внесите свою лепту в развитие PiratBit!
    Комментировать посты могут только пользователи прошедшие не сложную регистрацию
    Показать сообщения:    

    В гостях у Элис через торрент
    Скачать бесплатно В гостях у Элис
    В гостях у Элис скачать торрент
    В гостях у Элис смотреть онлайн
    Cкачать фильм В гостях у Элис бесплатно
    В гостях у Элис скачать торрент в хорошем качестве
    В гостях у Элис смотреть онлайн бесплатно в хорошем качестве


    Вы не можете начинать темы
    Вы не можете отвечать на сообщения
    Вы не можете редактировать свои сообщения
    Вы не можете удалять свои сообщения
    Вы не можете голосовать в опросах
    Вы не можете прикреплять файлы к сообщениям
    Вы можете скачивать файлы