Ссылка на приватное зеркало нашего сайта всего за 1$. Внимание количество ограничено!!!

2 сезон

iTunes

1 сезон

1

2 сезон

2 сезон

iTunes

1 сезон

RePack

30

Ultimate

ВАЖНО

ИГРА 18+

pack

RePack

MK11
pack

Забери бонус

RePack

jed

!!Акция!!

Alien_Rage

RePack

fifa19

RePack

Assassins Creed: Odyssey

RePack

NEED FOR SPEED™ PAYBACK

4 сезон

9 сезон

Бесстыжие 9 сезон

Все сериалы

все сериалы на PB.wtf

RePack

FAR CRY 5
  

Тюльпанная лихорадка / Tulip Fever (Джастин Чадвик) [2017, Драма, мелодрама, BD Remux 1080p] DUB [iTunes] pb.wtf

Тюльпанная лихорадка через торрент pb.wtf

Размер: 18.61 GB | Добавлен: 3 года назад | Торрент скачан:54 раза
Скачать  

29-11-2017 03:02 Тюльпанная лихорадка Скачать торрент  

Тюльпанная лихорадка / Tulip FeverГод выпуска: 2017
Страна: США, Великобритания
Жанр: Драма, мелодрама
Продолжительность: 01:44:50
Перевод: Дубляж [iTunes]
Субтитры: английские

Режиссер: Джастин Чадвик

rating

В ролях:

Алисия Викандер, Дэйн ДеХаан, Кристоф Вальц, Зак Галифианакис, Джуди Денч, Холлидей Грейнджер, Джек О’Коннелл, Мэттью Моррисон, Кара Делевинь, Том Холландер

Описание:

Голландия, 17 век. Луковицы прекрасных цветов становятся причиной баснословного богатства или унизительной нищеты. Жители Амстердама готовы ради них на все: обман, подлог… и даже убийство. В атмосфере всеобщей тюльпаномании страсть бедного художника к молодой обольстительной жене стареющего богатого торговца может завести очень далеко..

Качество: BD Remux 1080p
Формат: MKV
Видео кодек: H.264
Аудио кодек: AC3

Видео: 1920x1080 (16:9), 23,976 fps, MPEG-4 AVC ~ 21206 Кbps avg, 0.427 bit/pixel
Аудио#1: AC3, 48,0 kHz, 6 ch, ~384.00 kbps avg | русский | iTunes
Аудио#2: DTS-HD MA, 48,0 kHz, 6 ch, ~3840.00 kbps avg | английский | Оригинал
скриншот   скриншот   скриншот   скриншот   скриншот   скриншот  

Общее
Уникальный идентификатор : 194061902566698405695136808712748699446 (0x91FEF6820AF78F90953BC002B32C8F36)
Полное имя : Tulip.Fever.2017.D.Blu.Ray.REMUX.1080p.Rus.Eng.mkv
Формат : Matroska
Версия формата : Version 4 / Version 2
Размер файла : 18,6 Гбайт
Продолжительность : 1 ч. 44 м.
Режим общего битрейта : Переменный
Общий поток : 25,4 Мбит/сек
Название фильма : Тюльпанная лихорадка (2017)
Дата кодирования : UTC 2017-11-28 23:00:52
Программа кодирования : mkvmerge v9.7.1 ('Pandemonium') 64bit
Библиотека кодирования : libebml v1.3.4 + libmatroska v1.4.5

Видео
Идентификатор : 1
Формат : AVC
Формат/Информация : Advanced Video Codec
Профиль формата : High@L4.1
Параметр CABAC формата : Да
Параметр ReFrames формата : 3 кадра
Параметр GOP формата : M=3, N=12
Идентификатор кодека : V_MPEG4/ISO/AVC
Продолжительность : 1 ч. 44 м.
Вид битрейта : Переменный
Битрейт : 21,2 Мбит/сек
Максимальный битрейт : 35,0 Мбит/сек
Ширина : 1920 пикселей
Высота : 1080 пикселей
Соотношение сторон : 16:9
Режим частоты кадров : Постоянный
Частота кадров : 23,976 (24000/1001) кадра/сек
Стандарт вещания : NTSC
Цветовое пространство : YUV
Субдискретизация насыщенности : 4:2:0
Битовая глубина : 8 бит
Тип развёртки : Прогрессивная
Бит/(Пиксели*Кадры) : 0.427
Размер потока : 15,5 Гбайт (83%)
Заголовок : Tulip.Fever.2017.D.Blu.Ray.REMUX.1080p.Rus.Eng
Default : Да
Forced : Нет
Цветовой диапазон : Limited
Основные цвета : BT.709
Характеристики трансфера : BT.709
Коэффициенты матрицы : BT.709

Аудио #1
Идентификатор : 2
Формат : AC-3
Формат/Информация : Audio Coding 3
Параметр Endianness формата : Big
Идентификатор кодека : A_AC3
Продолжительность : 1 ч. 44 м.
Вид битрейта : Постоянный
Битрейт : 384 Кбит/сек
Каналы : 6 каналов
Расположение каналов : Front: L C R, Side: L R, LFE
Частота : 48,0 КГц
Частота кадров : 31,250 кадров/сек (1536 spf)
Битовая глубина : 16 бит
Метод сжатия : С потерями
Размер потока : 288 Мбайт (2%)
Заголовок : iTunes
Язык : Russian
Default : Да
Forced : Нет

Аудио #2
Идентификатор : 3
Формат : DTS
Формат/Информация : Digital Theater Systems
Профиль формата : MA / Core
Режим : 16
Параметр Endianness формата : Big
Идентификатор кодека : A_DTS
Продолжительность : 1 ч. 44 м.
Вид битрейта : Переменный / Постоянный
Битрейт : 3840 Кбит/сек / 1509 Кбит/сек
Каналы : 6 каналов
Расположение каналов : Front: L C R, Side: L R, LFE
Частота : 48,0 КГц
Частота кадров : 93,750 кадра/сек (512 spf)
Битовая глубина : 24 бит
Метод сжатия : Без потерь / Lossy
Размер потока : 2,80 Гбайт (15%)
Язык : English
Default : Нет
Forced : Нет

Текст #1
Идентификатор : 4
Формат : UTF-8
Идентификатор кодека : S_TEXT/UTF8
Идентификатор кодека/Информация : UTF-8 Plain Text
Продолжительность : 1 ч. 43 м.
Битрейт : 47 бит/сек
ElementCount : 1382
Размер потока : 36,2 Кбайт (0%)
Язык : English
Default : Нет
Forced : Нет

Текст #2
Идентификатор : 5
Формат : UTF-8
Идентификатор кодека : S_TEXT/UTF8
Идентификатор кодека/Информация : UTF-8 Plain Text
Продолжительность : 1 ч. 44 м.
Битрейт : 57 бит/сек
ElementCount : 1688
Размер потока : 43,9 Кбайт (0%)
Заголовок : SDH
Язык : English
Default : Нет
Forced : Нет

Текст #3
Идентификатор : 6
Формат : UTF-8
Идентификатор кодека : S_TEXT/UTF8
Идентификатор кодека/Информация : UTF-8 Plain Text
Продолжительность : 1 ч. 44 м.
Битрейт : 77 бит/сек
ElementCount : 1688
Размер потока : 59,1 Кбайт (0%)
Заголовок : SDH-Colored
Язык : English
Default : Нет
Forced : Нет

Меню
00:00:00.000 : en:00:00:00.000
00:03:33.130 : en:00:03:33.130
00:08:58.204 : en:00:08:58.204
00:14:48.304 : en:00:14:48.304
00:20:30.563 : en:00:20:30.563
00:26:29.421 : en:00:26:29.421
00:33:44.648 : en:00:33:44.648
00:39:13.935 : en:00:39:13.935
00:45:54.293 : en:00:45:54.293
00:51:56.697 : en:00:51:56.697
00:58:29.339 : en:00:58:29.339
01:05:36.766 : en:01:05:36.766
01:11:57.104 : en:01:11:57.104
01:18:23.657 : en:01:18:23.657
01:23:05.480 : en:01:23:05.480
01:27:29.619 : en:01:27:29.619
01:32:55.361 : en:01:32:55.361
01:37:29.802 : en:01:37:29.802

pb.wtf



Скачать Тюльпанная лихорадка через торрент http://s015.radikal.ru/i330/1711/9e/d9a6be6376f6.jpg Скачать фильм Тюльпанная лихорадка через торрент бесплантно в хорошем качестве Описание: Голландия, 17 век. Луковицы прекрасных цветов становятся причиной баснословного богатства или унизительной нищеты. Жители ... 10 10 5
Торрент: Зарегистрирован [2017-11-29 03:02] · скачан: 54 раз
Статус: √ проверено
Размер: 18.61 GB
Как cкачать? Как скачать Тюльпанная лихорадка через торрент | qTorrent

% Раздел Тема Автор DL S | L
Фильмы 2017 [DVDrip, WEB-DLRip, HDrip] (DUB, MVO) [ 2.07 GB ] Тюльпанная лихорадка / Tulip Fever [2017 HDRip "BD RUS"] coc900 Скачать
1 | 0
Фильмы [HD 720p, 1080p] (Хороший звук DUB, MVO) [ 2.84 GB ] Тюльпанная лихорадка / Tulip Fever [2017 BDRip 720p] sokol_ok Скачать
2 | 0
Фильмы 2017 [DVDrip, WEB-DLRip, HDrip] (DUB, MVO) [ 2.12 GB ] Тюльпанная лихорадка / Tulip Fever [2017 BDRip-AVC] sokol_ok Скачать
2 | 0
Фильмы 2017 [DVDrip, WEB-DLRip, HDrip] (DUB, MVO) [ 1.33 GB ] Тюльпанная лихорадка / Tulip Fever [2017 BDRip-AVC] sokol_ok Скачать
2 | 0
Фильмы 2017 [DVDrip, WEB-DLRip, HDrip] (DUB, MVO) [ 1.46 GB ] Тюльпанная лихорадка / Tulip Fever [2017 BDRip] - [] Twi7ter Скачать
2 | 0
Фильмы [HD 720p, 1080p] (Хороший звук DUB, MVO) [ 7.24 GB ] Тюльпанная лихорадка / Tulip Fever [2017 BDRip 1080p] bober100 Скачать
1 | 0
Фильмы [HD 720p, 1080p] (Хороший звук DUB, MVO) [ 5.14 GB ] Тюльпанная лихорадка / Tulip Fever [2017 BDRip 720p] bober100 Скачать
1 | 0

28-11-2019 20:33  

Отключить всю рекламу на сайте

    Дорогой пользователь! Огромная просьба, поблагодарите релизера, оцените раздачу и оставьте свои комментарий, если Вы скачали Тюльпанная лихорадка через торрент бесплатно! Внесите свою лепту в развитие PiratBit!
    Комментировать посты могут только пользователи прошедшие не сложную регистрацию
    Показать сообщения:    

    Тюльпанная лихорадка через торрент
    Скачать бесплатно Тюльпанная лихорадка
    Тюльпанная лихорадка скачать торрент
    Тюльпанная лихорадка смотреть онлайн
    Cкачать фильм Тюльпанная лихорадка бесплатно
    Тюльпанная лихорадка скачать торрент в хорошем качестве
    Тюльпанная лихорадка смотреть онлайн бесплатно в хорошем качестве


    Вы не можете начинать темы
    Вы не можете отвечать на сообщения
    Вы не можете редактировать свои сообщения
    Вы не можете удалять свои сообщения
    Вы не можете голосовать в опросах
    Вы не можете прикреплять файлы к сообщениям
    Вы можете скачивать файлы