2 сезон

iTunes

1 сезон

1

iTunes

iTunes

iTunes

1 сезон

RePack

30

ИГРА 18+

pack

ВАЖНО

!!Акция!!

Alien_RageХит недели

RePack

MK11
pack

Забери бонус

RePack

jed

!!Акция!!

Alien_Rage

RePack

fifa19

RePack

Assassins Creed: Odyssey

RePack

NEED FOR SPEED™ PAYBACK

4 сезон

9 сезон

Бесстыжие 9 сезон

Все сериалы

все сериалы на PB.wtf

RePack

FAR CRY 5
  

Медовый месяц Камиллы / Camille (Грегори МакКензи) [2008, фэнтези, драма, мелодрама, комедия, приключения, BDRip 720p by msltel] DUB pb.wtf

Медовый месяц Камиллы через торрент pb.wtf

Размер: 4.52 GB | Добавлен: 2 года 11 мес. назад | Торрент скачан:37 раз
Скачать  

29-11-2017 05:39 Медовый месяц Камиллы Скачать торрент  

Название: Медовый месяц Камиллы
Оригинальное название: Camille
Год выпуска: 2008
Страна: США, Великобритания
Жанр: фэнтези, драма, мелодрама, комедия, приключения
Продолжительность: 01:30:59
Перевод: дублированный

Режиссер: Грегори МакКензи
В ролях: Сиенна Миллер, Джеймс Франко, Дэвид Кэрредин, Скотт Гленн, Эд Лотер, Марк Уилсон, Лоурен Эш, Эйвери Бисби, Митч Бисби, Паула Бодро

О фильме: Что может быть романтичнее медового месяца на Ниагаре? Но для Силиаса и Камиллы это будет необычное путешествие. Силиас — мелкий мошенник. Он женится на племяннице шерифа, только чтобы не попасть в тюрьму. Но влюблённая Камилла верит, что её чувства изменят избранника. И ничто не помешает сбыться её мечте о медовом месяце. Даже собственная смерть…



Качество: BDRip 720p
Формат: MKV
Видео: MPEG-4 AVC, 6218 Кбит/с, 1280x720
Аудио 1: русский, AC3, 448 kbps, 6 ch [дублированный]
Аудио 2: английский, AC3, 448 kbps, 6 ch, 48 kHz [оригинал]
Субтитры: русские
Неименованные главы/чаптеры.
Общее
Уникальный идентификатор : 231066618486782434250156014048451550373 (0xADD5CFDD36A57150986B13DCF2D4DCA5)
Полное имя : D:\Video\Медовый месяц Камиллы.2008.BDRip.720p by msltel.mkv
Формат : Matroska
Версия формата : Version 4 / Version 2
Размер файла : 4,52 Гбайт
Продолжительность : 1 ч. 30 м.
Общий поток : 7117 Кбит/сек
Название фильма : Rip by msltel
Дата кодирования : UTC 2017-11-28 13:16:26
Программа кодирования : mkvmerge v8.2.0 ('World of Adventure') 64bit
Библиотека кодирования : libebml v1.3.1 + libmatroska v1.4.2

Видео
Идентификатор : 1
Формат : AVC
Формат/Информация : Advanced Video Codec
Профиль формата : High@L4.1
Настройки формата : CABAC / 9 Ref Frames
Параметр CABAC формата : Да
Параметр RefFrames формата : 9 кадров
Идентификатор кодека : V_MPEG4/ISO/AVC
Продолжительность : 1 ч. 30 м.
Битрейт : 6218 Кбит/сек
Ширина : 1280 пикселей
Высота : 720 пикселей
Соотношение сторон : 16:9
Режим частоты кадров : Постоянный
Частота кадров : 23,976 (24000/1001) кадра/сек
Цветовое пространство : YUV
Субдискретизация насыщенности : 4:2:0
Битовая глубина : 8 бит
Тип развёртки : Прогрессивная
Бит/(Пиксели*Кадры) : 0.281
Размер потока : 3,95 Гбайт (87%)
Библиотека кодирования : x264 core 146 r2538 121396c
Настройки программы : cabac=1 / ref=9 / deblock=1:-3:-2 / analyse=0x3:0x113 / me=umh / subme=11 / psy=1 / psy_rd=1.00:0.15 / mixed_ref=1 / me_range=32 / chroma_me=1 / trellis=2 / 8x8dct=1 / cqm=0 / deadzone=21,11 / fast_pskip=0 / chroma_qp_offset=-3 / threads=6 / lookahead_threads=1 / sliced_threads=0 / nr=0 / decimate=1 / interlaced=0 / bluray_compat=0 / constrained_intra=0 / bframes=9 / b_pyramid=2 / b_adapt=2 / b_bias=0 / direct=1 / weightb=1 / open_gop=0 / weightp=2 / keyint=230 / keyint_min=23 / scenecut=40 / intra_refresh=0 / rc_lookahead=40 / rc=crf / mbtree=0 / crf=18.5 / qcomp=0.60 / qpmin=0 / qpmax=69 / qpstep=4 / vbv_maxrate=62500 / vbv_bufsize=78125 / crf_max=0.0 / nal_hrd=none / filler=0 / ip_ratio=1.40 / pb_ratio=1.30 / aq=1:1.00
Язык : English
Default : Да
Forced : Нет

Аудио #1
Идентификатор : 2
Формат : AC-3
Формат/Информация : Audio Coding 3
Идентификатор кодека : A_AC3
Продолжительность : 1 ч. 30 м.
Вид битрейта : Постоянный
Битрейт : 448 Кбит/сек
Каналы : 6 каналов
Расположение каналов : Front: L C R, Side: L R, LFE
Частота : 48,0 КГц
Частота кадров : 31,250 кадров/сек (1536 SPF)
Битовая глубина : 16 бит
Метод сжатия : С потерями
Размер потока : 292 Мбайт (6%)
Заголовок : DUB
Язык : Russian
ServiceKind/String : Complete Main
Default : Да
Forced : Нет

Аудио #2
Идентификатор : 3
Формат : AC-3
Формат/Информация : Audio Coding 3
Идентификатор кодека : A_AC3
Продолжительность : 1 ч. 30 м.
Вид битрейта : Постоянный
Битрейт : 448 Кбит/сек
Каналы : 6 каналов
Расположение каналов : Front: L C R, Side: L R, LFE
Частота : 48,0 КГц
Частота кадров : 31,250 кадров/сек (1536 SPF)
Битовая глубина : 16 бит
Метод сжатия : С потерями
Размер потока : 292 Мбайт (6%)
Заголовок : original
Язык : English
ServiceKind/String : Complete Main
Default : Нет
Forced : Нет

Текст
Идентификатор : 4
Формат : UTF-8
Идентификатор кодека : S_TEXT/UTF8
Идентификатор кодека/Информация : UTF-8 Plain Text
Продолжительность : 1 ч. 25 м.
Битрейт : 64 бит/сек
ElementCount : 1066
Размер потока : 40,7 Кбайт (0%)
Заголовок : русские
Язык : Russian
Default : Нет
Forced : Нет

Меню
00:00:00.000 : :Chapter 01
00:07:06.550 : :Chapter 02
00:11:15.174 : :Chapter 03
00:19:09.606 : :Chapter 04
00:24:47.694 : :Chapter 05
00:31:34.100 : :Chapter 06
00:36:54.962 : :Chapter 07
00:43:28.397 : :Chapter 08
00:46:33.957 : :Chapter 09
00:51:37.719 : :Chapter 10
00:56:39.187 : :Chapter 11
01:01:00.406 : :Chapter 12
01:06:33.572 : :Chapter 13
01:13:19.686 : :Chapter 14
01:20:53.557 : :Chapter 15
01:27:07.889 : :Chapter 16
01:30:58.953 : :Chapter 17
pb.wtf



Скачать Медовый месяц Камиллы через торрент http://s019.radikal.ru/i638/1711/74/da3ca30ac769.jpg Скачать фильм Медовый месяц Камиллы через торрент бесплантно в хорошем качестве О фильме: Что может быть романтичнее медового месяца на Ниагаре? Но для Силиаса и Камиллы это будет необычное путешествие. Силиас — мелкий ... 5 10 1
Info! Золотая раздача, скачанное не засчитывается.
Торрент: Зарегистрирован [2017-11-29 05:39] · скачан: 37 раз
Статус: √ проверено
Размер: 4.52 GB
Как cкачать? Как скачать Медовый месяц Камиллы через торрент | qTorrent

% Раздел Тема Автор DL S | L
Фильмы 2006-2008 [ 2.89 GB ] Медовый месяц Камиллы / Camille [2007 BDRip-AVC] Dub sokol_ok Скачать
2 | 0
Фильмы 2006-2008 [ 1.46 GB ] Медовый месяц Камиллы / Camille [2007 BDRip-AVC] Dub sokol_ok Скачать
2 | 0
Фильмы [HD 720p, 1080p] (Хороший звук DUB, MVO) [ 11.47 GB ] Медовый месяц Камиллы / Camille [2008 BDRip 1080p by msltel] DUB msltel Скачать
1 | 0
Фильмы 2006-2008 [ 703 MB ] Медовый месяц Камиллы / Camille [2007 HDRip DUB] кэп Скачать
1 | 0

28-11-2019 20:33  

Отключить всю рекламу на сайте

27-02-2018 23:02 Медовый месяц Камиллы Скачать торрент  

И никаких отзывов ... Смотрел давненько , фильм зацепил !pb.wtf



    Дорогой пользователь! Огромная просьба, поблагодарите релизера, оцените раздачу и оставьте свои комментарий, если Вы скачали Медовый месяц Камиллы через торрент бесплатно! Внесите свою лепту в развитие PiratBit!
    Комментировать посты могут только пользователи прошедшие не сложную регистрацию
    Показать сообщения:    

    Медовый месяц Камиллы через торрент
    Скачать бесплатно Медовый месяц Камиллы
    Медовый месяц Камиллы скачать торрент
    Медовый месяц Камиллы смотреть онлайн
    Cкачать фильм Медовый месяц Камиллы бесплатно
    Медовый месяц Камиллы скачать торрент в хорошем качестве
    Медовый месяц Камиллы смотреть онлайн бесплатно в хорошем качестве


    Вы не можете начинать темы
    Вы не можете отвечать на сообщения
    Вы не можете редактировать свои сообщения
    Вы не можете удалять свои сообщения
    Вы не можете голосовать в опросах
    Вы не можете прикреплять файлы к сообщениям
    Вы можете скачивать файлы