1 сезон

3 сезон

iTunes

1

iTunes

MVO

iTunes

13

1 сезон

RePack

30

Deluxe

pack

Лицензия

ВАЖНО

ИГРА 18+

pack

RePack

MK11

RePack

jed

RePack

fifa19

RePack

RDR2

RePack

NEED FOR SPEED™ PAYBACK

4 сезон

9 сезон

Бесстыжие 9 сезон

Все сериалы

все сериалы на PB.wtf

RePack

FAR CRY 5

Anonymous, добрый вечер, мы катастрофически не успеваем собрать деньги на оплату серверов, помогите нам пожалуйста 5,10,15р., для нас важна любая помощь . В качестве благодарности мы отключим Вам всю рекламу на сайте (укажите свой ник в строку Ваше имя)!

×
  
Magnet ссылка

Таврия (Юрий Лысенко) [1959, СССР, драма, DVDRip от AVP Studio] pb.wtf

Таврия через торрент pb.wtf

Размер: 1.09 GB | Добавлен: 3 года 7 мес. назад | Торрент скачан:16 раз
Скачать  

29-11-2017 10:10 Таврия Скачать торрент  

Таврия
Страна: СССР
Производство: К/ст. им. Довженко

Жанр: драма
Год выпуска: 1959
Продолжительность: 01:26:11

Перевод: Не требуется
Cубтитры: нет
Оригинальная аудиодорожка: русский

Режиссер: Юрий Лысенко

В ролях:
Юрий Максимов, Ольга Лысенко, Лариса Шепитько, Николай Воронин, Иван Рыжов, Дмитрий Капка, Андрей Иванченко, Дмитрий Милютенко, Антон Король, Олег Жаков, Артем Тарский, Фёдор Ищенко, Дмитрий Костенко, А. Черненко (II), Коля Батуревич, Наталья Гицерот, Лев Перфилов, Николай Талюра, Мария Капнист, Александр Гумбург, Алексей Максимов, Н. Назарен, Василий Козенко...
Об актёрах подробней

Описание:
По одноименному роману Олеся Гончара.
Юг Украины, "степная империя" Фальцфейнов. По-разному складываются судьбы двух подруг Вусти (Ольга Лысенко) и Ганны (Лариса Шепитько). Вустя полюбила революционера Леонида Бронникова и сама решила идти по его пути. Мечта Ганны - стать богатой. Она влюбляется в сына миллионеров Фальцфейнов. Но не удаётся горничной стать госпожой: помещица Софья Фальцфейн выгоняет Ганну из имения. Тяжёлые условия труда на работах в панских экономиях рождают солидарность и крепкую дружбу между русскими и украинцами. Они восстают против своей угнетательницы помещицы Фальцфейн.

Источник: DVD5 R5
Качество видео: DVDRip
Формат видео: AVI

Видео: 720х544 (4:3), 25 fps, XviD ~ 1609 kbps avg, 0.164 bit/pixel
Аудио: 48 kHz, Dolby Digital AC3 2.0, 192 kbps

Раздача от:
Общее
Полное имя : Tavriya.1959.DVDRip_[New-team]_by_AVP_Studio.avi
Формат : AVI
Формат/Информация : Audio Video Interleave
Размер файла : 1,09 Гбайт
Продолжительность : 1 ч. 26 м.
Общий поток : 1811 Кбит/сек
Программа кодирования : VirtualDubMod 1.5.10.3 | www.virtualdub-fr.org || (build 2550/release)
Библиотека кодирования : VirtualDubMod build 2550/release

Видео
Идентификатор : 0
Формат : MPEG-4 Visual
Профиль формата : Advanced Simple@L5
Настройки формата : BVOP1 / Custom Matrix
Параметр BVOP формата : 1
Параметр QPel формата : Нет
Параметр GMC формата : Без точки перехода
Параметр матрицы формата : Выборочная
Идентификатор кодека : XVID
Идентификатор кодека/Подсказка : XviD
Продолжительность : 1 ч. 26 м.
Битрейт : 1609 Кбит/сек
Ширина : 720 пикселей
Высота : 544 пикселя
Соотношение сторон : 4:3
Частота кадров : 25,000 кадров/сек
Цветовое пространство : YUV
Субдискретизация насыщенности : 4:2:0
Битовая глубина : 8 бит
Тип развёртки : Прогрессивная
Метод сжатия : С потерями
Бит/(Пиксели*Кадры) : 0.164
Размер потока : 992 Мбайт (89%)
Библиотека кодирования : XviD 73

Аудио
Идентификатор : 1
Формат : AC-3
Формат/Информация : Audio Coding 3
Идентификатор кодека : 2000
Продолжительность : 1 ч. 26 м.
Вид битрейта : Постоянный
Битрейт : 192 Кбит/сек
Каналы : 2 канала
Расположение каналов : Front: L R
Частота : 48,0 КГц
Частота кадров : 31,250 кадров/сек (1536 SPF)
Битовая глубина : 16 бит
Метод сжатия : С потерями
Размер потока : 118 Мбайт (11%)
Выравнивание : Разделение по промежуткам
Продолжительность промежутка : 40 мс. (1,00 видеокадр)
Время предзагрузки промежутка : 500 мс
pb.wtf



Скачать Таврия через торрент http://s011.radikal.ru/i316/1711/2c/01b1eafd8d00.png Скачать фильм Таврия через торрент бесплантно в хорошем качестве Описание:По одноименному роману Олеся Гончара.Юг Украины, "степная империя" Фальцфейнов. По-разному складываются судьбы двух подруг Вусти ... 10 10 1
Info! Золотая раздача, скачанное не засчитывается.
Торрент: Зарегистрирован [2017-11-29 10:10] · скачан: 16 раз
Статус: √ проверено
Размер: 1.09 GB
Как cкачать? Как скачать Таврия через торрент | UTorrent

% Раздел Тема Автор DL S | L
Кино СССР [ 1.09 GB ] Таврия [1959 СССР DVDRip-AVC от AVP Studio] AVP Studio Скачать
1 | 0
Кино СССР [ 762 MB ] Таврия [1959 СССР DVDRip от AVP Studio] AVP Studio Скачать
1 | 0

28-11-2019 20:33  

Отключить всю рекламу на сайте

    Дорогой пользователь! Огромная просьба, поблагодарите релизера, оцените раздачу и оставьте свои комментарий, если Вы скачали Таврия через торрент бесплатно! Внесите свою лепту в развитие PiratBit!
    Комментировать посты могут только пользователи прошедшие не сложную регистрацию
    Показать сообщения:    

    Таврия через торрент
    Скачать бесплатно Таврия
    Таврия скачать торрент
    Таврия смотреть онлайн
    Cкачать фильм Таврия бесплатно
    Таврия скачать торрент в хорошем качестве
    Таврия смотреть онлайн бесплатно в хорошем качестве


    Вы не можете начинать темы
    Вы не можете отвечать на сообщения
    Вы не можете редактировать свои сообщения
    Вы не можете удалять свои сообщения
    Вы не можете голосовать в опросах
    Вы не можете прикреплять файлы к сообщениям
    Вы можете скачивать файлы