>

5.6

iTunes

6.1

MVO

5.7

MVO

1

7.4

1 сезон

6.8

iTunes

7.2

1 сезон

13

6.7

1 сезон

8.3

RePack

30

Deluxe

pack

9.9

Лицензия

ВАЖНО

ИГРА 18+

pack

7.3

RePack

MK11

7.7

RePack

jed

7.8

RePack

fifa19

8.5

RePack

RDR2

RePack

NEED FOR SPEED™ PAYBACK

4 сезон

9 сезон

Бесстыжие 9 сезон

Все сериалы

все сериалы на PB.wtf

RePack

FAR CRY 5

Anonymous, добрый вечер, мы катастрофически не успеваем собрать деньги на оплату серверов, помогите нам пожалуйста 5,10,15р., для нас важна любая помощь . В качестве благодарности мы отключим Вам всю рекламу на сайте (укажите свой ник в строку Ваше имя)!

×
  
Magnet ссылка

Таврия (Юрий Лысенко) [1959, СССР, драма, DVDRip от AVP Studio] pb.wtf

Таврия через торрент pb.wtf

Размер: 762 MB | Добавлен: 3 года 9 мес. назад | Торрент скачан:13 раз
Смотреть онлайн Таврия | Скачать    Ребята, помогите собрать деньги на оплату серверов!!!

29-11-2017 10:15 Таврия Скачать торрент  

Таврия
Страна: СССР
Производство: К/ст. им. Довженко

Жанр: драма
Год выпуска: 1959
Продолжительность: 01:26:11

Перевод: Не требуется
Cубтитры: нет
Оригинальная аудиодорожка: русский

Режиссер: Юрий Лысенко

В ролях:
Юрий Максимов, Ольга Лысенко, Лариса Шепитько, Николай Воронин, Иван Рыжов, Дмитрий Капка, Андрей Иванченко, Дмитрий Милютенко, Антон Король, Олег Жаков, Артем Тарский, Фёдор Ищенко, Дмитрий Костенко, А. Черненко (II), Коля Батуревич, Наталья Гицерот, Лев Перфилов, Николай Талюра, Мария Капнист, Александр Гумбург, Алексей Максимов, Н. Назарен, Василий Козенко...
Об актёрах подробней

Описание:
По одноименному роману Олеся Гончара.
Юг Украины, "степная империя" Фальцфейнов. По-разному складываются судьбы двух подруг Вусти (Ольга Лысенко) и Ганны (Лариса Шепитько). Вустя полюбила революционера Леонида Бронникова и сама решила идти по его пути. Мечта Ганны - стать богатой. Она влюбляется в сына миллионеров Фальцфейнов. Но не удаётся горничной стать госпожой: помещица Софья Фальцфейн выгоняет Ганну из имения. Тяжёлые условия труда на работах в панских экономиях рождают солидарность и крепкую дружбу между русскими и украинцами. Они восстают против своей угнетательницы помещицы Фальцфейн.

Источник: DVD5 R5
Качество видео: DVDRip
Формат видео: AVI

Видео: 640х480 (4:3), 25 fps, XviD ~ 1098 kbps avg, 0.143 bit/pixel
Аудио: 48 kHz, MP3 2.0, 128 kbps

Раздача от:
Общее
Полное имя : Tavriya.1959.DVDRip-745_[New-team]_by_AVP_Studio.avi
Формат : AVI
Формат/Информация : Audio Video Interleave
Размер файла : 762 Мбайт
Продолжительность : 1 ч. 26 м.
Общий поток : 1236 Кбит/сек
Программа кодирования : VirtualDubMod 1.5.10.3 | www.virtualdub-fr.org || (build 2550/release)
Библиотека кодирования : VirtualDubMod build 2550/release

Видео
Идентификатор : 0
Формат : MPEG-4 Visual
Профиль формата : Advanced Simple@L5
Настройки формата : BVOP1 / Custom Matrix
Параметр BVOP формата : 1
Параметр QPel формата : Нет
Параметр GMC формата : Без точки перехода
Параметр матрицы формата : Выборочная
Идентификатор кодека : XVID
Идентификатор кодека/Подсказка : XviD
Продолжительность : 1 ч. 26 м.
Битрейт : 1098 Кбит/сек
Ширина : 640 пикселей
Высота : 480 пикселей
Соотношение сторон : 4:3
Частота кадров : 25,000 кадров/сек
Цветовое пространство : YUV
Субдискретизация насыщенности : 4:2:0
Битовая глубина : 8 бит
Тип развёртки : Прогрессивная
Метод сжатия : С потерями
Бит/(Пиксели*Кадры) : 0.143
Размер потока : 677 Мбайт (89%)
Библиотека кодирования : XviD 73

Аудио
Идентификатор : 1
Формат : MPEG Audio
Версия формата : Version 1
Профиль формата : Layer 3
Идентификатор кодека : 55
Идентификатор кодека/Подсказка : MP3
Продолжительность : 1 ч. 26 м.
Вид битрейта : Постоянный
Битрейт : 128 Кбит/сек
Каналы : 2 канала
Частота : 48,0 КГц
Частота кадров : 41,667 кадра/сек (1152 SPF)
Метод сжатия : С потерями
Размер потока : 78,9 Мбайт (10%)
Выравнивание : Соединение по промежуткам
Продолжительность промежутка : 40 мс. (1,00 видеокадр)
Время предзагрузки промежутка : 504 мс.
Библиотека кодирования : LAME3.99r
Настройки программы : -m s -V 4 -q 2 -lowpass 17 -b 128
pb.wtf



Скачать Таврия через торрент http://s011.radikal.ru/i316/1711/2c/01b1eafd8d00.png Скачать, смотреть онлайн Таврия бесплантно в хорошем качестве Описание:По одноименному роману Олеся Гончара.Юг Украины, "степная империя" Фальцфейнов. По-разному складываются судьбы двух подруг Вусти ... 10 10 1
Info! Золотая раздача, скачанное не засчитывается.
Торрент: Зарегистрирован [2017-11-29 10:15] · скачан: 13 раз
Статус: √ проверено
Размер: 762 MB
Как cкачать? Как скачать Таврия через торрент | UTorrent

% Раздел Тема Автор DL S | L
Кино СССР [ 1.09 GB ] Таврия [1959 СССР DVDRip-AVC от AVP Studio] AVP Studio Скачать
1 | 0
Кино СССР [ 1.09 GB ] Таврия [1959 СССР DVDRip от AVP Studio] AVP Studio Скачать
1 | 0

28-11-2019 20:33  

Отключить всю рекламу на сайте

    Дорогой пользователь! Огромная просьба, поблагодарите релизера, оцените раздачу и оставьте свои комментарий, если Вы скачали Таврия через торрент бесплатно!
    Комментировать посты могут только пользователи прошедшие не сложную регистрацию
    Показать сообщения:    

    Таврия через торрент
    Скачать бесплатно Таврия
    Таврия скачать торрент
    Таврия смотреть онлайн
    Cкачать фильм Таврия бесплатно
    Таврия скачать торрент в хорошем качестве
    Таврия смотреть онлайн бесплатно в хорошем качестве


    Вы не можете начинать темы
    Вы не можете отвечать на сообщения
    Вы не можете редактировать свои сообщения
    Вы не можете удалять свои сообщения
    Вы не можете голосовать в опросах
    Вы не можете прикреплять файлы к сообщениям
    Вы можете скачивать файлы