Ссылка на приватное зеркало нашего сайта всего за 1$. Внимание количество ограничено!!!

2 сезон

iTunes

1 сезон

1

2 сезон

2 сезон

iTunes

1 сезон

RePack

30

Ultimate

ВАЖНО

ИГРА 18+

pack

RePack

MK11
pack

Забери бонус

RePack

jed

!!Акция!!

Alien_Rage

RePack

fifa19

RePack

Assassins Creed: Odyssey

RePack

NEED FOR SPEED™ PAYBACK

4 сезон

9 сезон

Бесстыжие 9 сезон

Все сериалы

все сериалы на PB.wtf

RePack

FAR CRY 5
  

Гоморра / Gomorra: La serie / Сезон 3 / Серии 1-12 из 12 (Стефано Соллима, Клаудио Капеллини, Франческа Коменчини) [2017, драма, криминал, триллер, HDTV 1080p] DVO [ViruseProject] pb.wtf

Гоморра через торрент pb.wtf

Размер: 23.67 GB | Добавлен: 2 года 10 мес. назад | Торрент скачан:47 раз
Скачать  

29-11-2017 10:18 Гоморра Скачать торрент  

Гоморра / Gomorra: La serieГод выпуска: 2017
Страна: Италия, Германия
Жанр: драма, криминал, триллер
Продолжительность: ~ 00:45:00
Перевод: Профессиональный (двухголосый) -
Субтитры: русские, внутри контента

Режиссер: Стефано Соллима, Клаудио Капеллини, Франческа Коменчини

rating

В ролях:

Марко Д’Амор, Сальваторе Эспозито, Фортунато Серлино, Фабио Де Каро и др.

Описание:

История о людях и судьбах, связанных с жестокой и могущественной неаполитанской преступной организацией. Рассказ о жизни мафиозного клана изнутри, увиденной глазами 30-летнего Чиро, верного помощника крестного отца Пьетро Савастано.

Качество: HDTV 1080p
Формат: MKV
Видео кодек: H.264
Аудио кодек: AC3

Видео: 1920 x 1040 (16:9), ~ 5 300 Kbps, 25.000 fps, 8 bits
Аудио#1: RU: 48 kHz, AC3 Dolby Digital, 2/0 (L,R) ch, 192 kb/s
Аудио#2: ITA: 48 kHz, AC3 Dolby Digital, 6 channels, 384 kb/s

скриншот   скриншот   скриншот   скриншот  

Общее
Уникальный идентификатор : 185579720936626834389235607466998875645 (0x8B9D5AAA6132EB6EBE9CC220C319C5FD)
Полное имя : D:\Gomorra.S03.1080p.ViruseProject\Gomorra.S03E01.1080p.HDTVRip.ViruseProject.mkv
Формат : Matroska
Версия формата : Version 4 / Version 2
Размер файла : 1,84 Гбайт
Продолжительность : 45 м. 13 с.
Общий поток : 5822 Кбит/сек
Дата кодирования : UTC 2017-11-29 07:30:24
Программа кодирования : mkvmerge v8.3.0 ('Over the Horizon') 64bit
Библиотека кодирования : libebml v1.3.1 + libmatroska v1.4.2

Видео
Идентификатор : 1
Формат : AVC
Формат/Информация : Advanced Video Codec
Профиль формата : High@L4.1
Параметр CABAC формата : Да
Параметр ReFrames формата : 4 кадра
Идентификатор кодека : V_MPEG4/ISO/AVC
Продолжительность : 45 м. 13 с.
Битрейт : 5244 Кбит/сек
Ширина : 1920 пикселей
Высота : 1040 пикселей
Соотношение сторон : 1,85:1
Режим частоты кадров : Постоянный
Частота кадров : 25,000 кадров/сек
Цветовое пространство : YUV
Субдискретизация насыщенности : 4:2:0
Битовая глубина : 8 бит
Тип развёртки : Прогрессивная
Бит/(Пиксели*Кадры) : 0.105
Размер потока : 1,66 Гбайт (90%)
Библиотека кодирования : x264 core 152 r2851 ba24899
Настройки программы : cabac=1 / ref=4 / deblock=1:-1:-1 / analyse=0x3:0x133 / me=tesa / subme=11 / psy=1 / psy_rd=1.00:0.15 / mixed_ref=1 / me_range=24 / chroma_me=1 / trellis=2 / 8x8dct=1 / cqm=0 / deadzone=21,11 / fast_pskip=1 / chroma_qp_offset=-3 / threads=16 / lookahead_threads=2 / sliced_threads=0 / nr=0 / decimate=1 / interlaced=0 / bluray_compat=0 / constrained_intra=0 / bframes=8 / b_pyramid=2 / b_adapt=2 / b_bias=0 / direct=3 / weightb=1 / open_gop=0 / weightp=2 / keyint=250 / keyint_min=25 / scenecut=40 / intra_refresh=0 / rc_lookahead=60 / rc=crf / mbtree=1 / crf=18.0 / qcomp=0.60 / qpmin=10 / qpmax=51 / qpstep=4 / ip_ratio=1.40 / aq=1:0.80
Язык : English
Default : Да
Forced : Нет

Аудио #1
Идентификатор : 2
Формат : AC-3
Формат/Информация : Audio Coding 3
Расширение режима : CM (complete main)
Параметр Endianness формата : Big
Идентификатор кодека : A_AC3
Продолжительность : 45 м. 13 с.
Вид битрейта : Постоянный
Битрейт : 192 Кбит/сек
Каналы : 2 канала
Расположение каналов : Front: L R
Частота : 48,0 КГц
Частота кадров : 31,250 кадров/сек (1536 spf)
Метод сжатия : С потерями
Размер потока : 62,1 Мбайт (3%)
Заголовок : ViruseProject
Язык : Russian
Default : Нет
Forced : Нет

Аудио #2
Идентификатор : 3
Формат : AC-3
Формат/Информация : Audio Coding 3
Расширение режима : CM (complete main)
Параметр Endianness формата : Big
Идентификатор кодека : A_AC3
Продолжительность : 45 м. 13 с.
Вид битрейта : Постоянный
Битрейт : 384 Кбит/сек
Каналы : 6 каналов
Расположение каналов : Front: L C R, Side: L R, LFE
Частота : 48,0 КГц
Частота кадров : 31,250 кадров/сек (1536 spf)
Метод сжатия : С потерями
Задержка видео : 100 мс.
Размер потока : 124 Мбайт (7%)
Заголовок : DD 5.1 Italiano @ 384 kbps
Язык : Italian
Default : Нет
Forced : Нет

Текст
Идентификатор : 4
Формат : UTF-8
Идентификатор кодека : S_TEXT/UTF8
Идентификатор кодека/Информация : UTF-8 Plain Text
Продолжительность : 42 м. 4 с.
Битрейт : 44 бит/сек
Count of elements : 201
Размер потока : 13,6 Кбайт (0%)
Заголовок : ViruseProject
Язык : Russian
Default : Нет
Forced : Нет

Внимание! Раздача ведётся путём добавления новых серий; при каждом добавлении создаётся новый торрент. Чтобы начать докачку новой серии, пользователям необходимо сделать следующее:
(1) остановить скачивание,
(2) удалить старый торрент у себя из клиента (старые серии удалять не надо),
(3) скачать новый торрент и запустить его у себя в клиенте вместо старого, при этом указать клиенту путь в старую папку куда и должно происходить скачивание новых серий.
Ваш клиент при этом должен произвести хеширование (проверку) старой папки (если не производит сам - помогите ему сделать это), и будет докачивать только те серии которых у вас ещё нет. Старые серии при этом не удаляются, а продолжают раздаваться!
Eсли вы уже удалили старые серии, то предотвратить повторную закачку старых серий можно, отжав галочку в соответствующих местах при запуске нового торрента. По возможности, желательно не удалять старые серии как можно дольше чтобы релизёр не столько продолжал раздавать старые серии, а смог сконцентрироваться на новых.
pb.wtf



Скачать Гоморра через торрент http://i97.fastpic.ru/big/2017/1129/5f/3b7de2553badc926f0c61eca9d43935f.jpg Скачать фильм Гоморра через торрент бесплантно в хорошем качестве Описание: История о людях и судьбах, связанных с жестокой и могущественной неаполитанской преступной организацией. Рассказ о жизни ... 9.2 10 9
Info! Серебряная раздача, засчитывается только 50% скачанного.
Торрент: Зарегистрирован [2018-01-05 17:38] · скачан: 47 раз
Статус: √ проверено
Размер: 23.67 GB
Как cкачать? Как скачать Гоморра через торрент | qTorrent

% Раздел Тема Автор DL S | L
Зарубежные сериалы [ 7.13 GB ] Гоморра / Gomorra: La serie / Сезон 3 / Серии 1-12 из 12 [2017 WEBRip] [MVO] killermax2013 Скачать
1 | 0
Зарубежные сериалы [ 31.7 GB ] Гоморра / Gomorra: La serie / Сезон 3 / Серии 1-12 из 12 [2017 WEBRip 1080p] [MVO] killermax2013 Скачать
1 | 0
Зарубежные сериалы [ 25.32 GB ] Гоморра / Gomorra: La serie / Сезон 3 / Серии 1-12 из 12 [2017 HDTVRip 1080p] [MVO] killermax2013 Скачать
1 | 0


Последний раз редактировалось: bober100 (2018-01-05 17:38), всего редактировалось 1 раз

28-11-2019 20:33  

Отключить всю рекламу на сайте

18-12-2017 20:06 Гоморра Скачать торрент  

Классный сериал!pb.wtf



05-01-2018 17:42 Гоморра Скачать торрент  

Первый скриншот такой не палевный спойлер :)pb.wtf



    Дорогой пользователь! Огромная просьба, поблагодарите релизера, оцените раздачу и оставьте свои комментарий, если Вы скачали Гоморра через торрент бесплатно! Внесите свою лепту в развитие PiratBit!
    Комментировать посты могут только пользователи прошедшие не сложную регистрацию
    Показать сообщения:    

    Гоморра через торрент
    Скачать бесплатно Гоморра
    Гоморра скачать торрент
    Гоморра смотреть онлайн
    Cкачать фильм Гоморра бесплатно
    Гоморра скачать торрент в хорошем качестве
    Гоморра смотреть онлайн бесплатно в хорошем качестве


    Вы не можете начинать темы
    Вы не можете отвечать на сообщения
    Вы не можете редактировать свои сообщения
    Вы не можете удалять свои сообщения
    Вы не можете голосовать в опросах
    Вы не можете прикреплять файлы к сообщениям
    Вы можете скачивать файлы