2 сезон

iTunes

MVO

1

2 сезон

iTunes

iTunes

1 сезон

RePack

30

Новинка

ВАЖНО

ИГРА 18+

pack

RePack

MK11
pack

Легкие деньги

RePack

jed

RePack

fifa19

RePack

RDR2

RePack

NEED FOR SPEED™ PAYBACK

4 сезон

9 сезон

Бесстыжие 9 сезон

Все сериалы

все сериалы на PB.wtf

RePack

FAR CRY 5

Anonymous, добрый вечер, мы не успеваем собрать деньги на оплату серверов за декабрь и январь, помогите нам пожалуйста в это трудное время. В качестве благодарности мы отключим Вам всю рекламу на сайте (укажите свой ник в строку Ваше имя)!

×
  
Magnet ссылка

Тюльпанная лихорадка / Tulip Fever (Джастин Чадвик / Justin Chadwick) [2017, драма, мелодрама, BDRip-AVC] Dub [Лицензия] pb.wtf

Тюльпанная лихорадка через торрент pb.wtf

Раздают: 1 [ 0 KB/s ]
Размер: 1.33 GB | Добавлен: 3 года 1 мес. назад | Торрент скачан:111 раз
Скачать  

29-11-2017 17:39 Тюльпанная лихорадка Скачать торрент  

Тюльпанная лихорадка
Tulip Fever


Страна: Великобритания, США
Жанр: драма, мелодрама

Год выпуска: 2017
Продолжительность: 01:44:58

Перевод: Профессиональный (полное дублирование) [Blu-ray RUS]
Субтитры: русские (полные)
Оригинальная аудиодорожка: нет

Режиссер: Джастин Чадвик / Justin Chadwick

В ролях: Алисия Викандер, Дэйн ДеХаан, Кристоф Вальц, Зак Галифианакис, Джуди Денч, Холлидей Грейнджер, Джек О’Коннелл, Мэттью Моррисон, Кара Делевинь, Том Холландер, Кевин МакКидд, Дуглас Ходж

Описание:
Голландия, 17 век. Луковицы прекрасных цветов становятся причиной баснословного богатства или унизительной нищеты. Жители Амстердама готовы ради них на все: обман, подлог... и даже убийство. В атмосфере всеобщей тюльпаномании страсть бедного художника к молодой обольстительной жене стареющего богатого торговца может завести очень далеко.



Релиз:

Автор рипа: stalkerok | Моя группа

Сэмпл

Качество видео: BDRip-AVC [Tulip.Fever.2017.1080p.BluRay.REMUX.AVC.DTS-HD.MA.5.1-FGT]
Формат видео: MKV
Видео кодек: AVC
Аудио кодек: AC3
Видео: 1367 Кбит/сек, 1076x450 (2.40:1), 23,976 кадр/сек, AVC
Аудио: русский, 448 Кбит/сек, 48 КГц, 5.1, AC3
Навигация по главам: есть

---[Information] [29.11.2017 19:33:37] x264 [info]: frame I:1198 Avg QP:14.14 size: 41569
---[Information] [29.11.2017 19:33:37] x264 [info]: frame P:32519 Avg QP:16.08 size: 15667
---[Information] [29.11.2017 19:33:37] x264 [info]: frame B:117099 Avg QP:18.96 size: 4403

Общее
Уникальный идентификатор : 233922115629668636104004674468827220781 (0xAFFBC2BE307978B2BE0CE57D9015CB2D)
Полное имя : M:\$new\Tulip Fever (2017)\NEW\Tulip.Fever.2017.BDRip-AVC.RUS.stalkerok.new-team.mkv
Формат : Matroska
Версия формата : Version 4 / Version 2
Размер файла : 1,33 Гбайт
Продолжительность : 1 ч. 44 м.
Общий поток : 1815 Кбит/сек
Название фильма : Tulip Fever (2017) (Rip by stalkerok)
Дата кодирования : UTC 2017-12-11 17:03:47
Программа кодирования : mkvmerge v8.6.1 ('Flying') 64bit
Библиотека кодирования : libebml v1.3.3 + libmatroska v1.4.4

Видео
Идентификатор : 1
Формат : AVC
Формат/Информация : Advanced Video Codec
Профиль формата : High@L4.1
Параметр CABAC формата : Да
Параметр ReFrames формата : 14 кадров
Идентификатор кодека : V_MPEG4/ISO/AVC
Продолжительность : 1 ч. 44 м.
Битрейт : 1367 Кбит/сек
Ширина : 1076 пикселей
Высота : 450 пикселей
Соотношение сторон : 2,40:1
Режим частоты кадров : Постоянный
Частота кадров : 23,976 (24000/1001) кадра/сек
Цветовое пространство : YUV
Субдискретизация насыщенности : 4:2:0
Битовая глубина : 8 бит
Тип развёртки : Прогрессивная
Бит/(Пиксели*Кадры) : 0.118
Размер потока : 1,00 Гбайт (75%)
Заголовок : Tulip Fever (2017) (Rip by stalkerok)
Библиотека кодирования : x264 core 152 r2851kMod ba24899
Настройки программы : cabac=1 / ref=14 / deblock=1:-3:-2 / analyse=0x3:0x133 / me=umh / subme=11 / psy=1 / fade_compensate=0.00 / psy_rd=1.00:0.00 / mixed_ref=1 / me_range=32 / chroma_me=1 / trellis=2 / 8x8dct=1 / cqm=0 / deadzone=21,11 / fast_pskip=0 / chroma_qp_offset=-2 / threads=12 / lookahead_threads=3 / sliced_threads=0 / nr=0 / decimate=1 / interlaced=0 / bluray_compat=0 / constrained_intra=0 / bframes=14 / b_pyramid=2 / b_adapt=2 / b_bias=0 / direct=3 / weightb=1 / open_gop=0 / weightp=2 / keyint=240 / keyint_min=23 / scenecut=40 / intra_refresh=0 / rc_lookahead=60 / rc=crf / mbtree=0 / crf=18.3000 / qcomp=0.65 / qpmin=0 / qpmax=69 / qpstep=4 / vbv_maxrate=50000 / vbv_bufsize=62500 / crf_max=0.0 / nal_hrd=none / filler=0 / ip_ratio=1.40 / pb_ratio=1.30 / aq=3:0.80 / zones=140293,150815,q=35
Default : Да
Forced : Нет

Аудио
Идентификатор : 2
Формат : AC-3
Формат/Информация : Audio Coding 3
Расширение режима : CM (complete main)
Параметр Endianness формата : Big
Идентификатор кодека : A_AC3
Продолжительность : 1 ч. 44 м.
Вид битрейта : Постоянный
Битрейт : 448 Кбит/сек
Каналы : 6 каналов
Расположение каналов : Front: L C R, Side: L R, LFE
Частота : 48,0 КГц
Частота кадров : 31,250 кадров/сек (1536 spf)
Метод сжатия : С потерями
Размер потока : 336 Мбайт (25%)
Язык : Russian
Default : Да
Forced : Нет

Текст
Идентификатор : 3
Формат : UTF-8
Идентификатор кодека : S_TEXT/UTF8
Идентификатор кодека/Информация : UTF-8 Plain Text
Продолжительность : 1 ч. 36 м.
Битрейт : 74 бит/сек
Count of elements : 1126
Размер потока : 52,6 Кбайт (0%)
Язык : Russian
Default : Нет
Forced : Нет

Меню
00:00:00.000 : en:Chapter 00
00:00:05.005 : en:Chapter 01
00:03:38.009 : en:Chapter 02
00:09:02.875 : en:Chapter 03
00:14:53.142 : en:Chapter 04
00:20:35.651 : en:Chapter 05
00:26:34.092 : en:Chapter 06
00:33:49.694 : en:Chapter 07
00:39:18.856 : en:Chapter 08
00:45:59.381 : en:Chapter 09
00:52:01.326 : en:Chapter 10
00:58:34.135 : en:Chapter 11
01:05:41.479 : en:Chapter 12
01:12:02.109 : en:Chapter 13
01:18:28.495 : en:Chapter 14
01:23:10.318 : en:Chapter 15
01:27:34.624 : en:Chapter 16
01:33:00.366 : en:Chapter 17
01:37:34.557 : en:Chapter 18
скриншот   скриншот   скриншот   скриншот   скриншот   скриншот   скриншот  
pb.wtf



Скачать Тюльпанная лихорадка через торрент http://i6.imageban.ru/out/2017/09/18/2ff75c0c358795c5946784cc1680714d.png Скачать фильм Тюльпанная лихорадка через торрент бесплантно в хорошем качестве Описание:Голландия, 17 век. Луковицы прекрасных цветов становятся причиной баснословного богатства или унизительной нищеты. Жители ... 9.6 10 9
Info! Золотая раздача, скачанное не засчитывается.
Торрент: Зарегистрирован [2017-12-11 17:21] · скачан: 111 раз
Статус: √ проверено
Размер: 1.33 GB
Как cкачать? Как скачать Тюльпанная лихорадка через торрент | UTorrent

% Раздел Тема Автор DL S | L
Фильмы 2017 [DVDrip, WEB-DLRip, HDrip] (DUB, MVO) [ 2.07 GB ] Тюльпанная лихорадка / Tulip Fever [2017 HDRip "BD RUS"] coc900 Скачать
1 | 0
Фильмы [HD 720p, 1080p] (Хороший звук DUB, MVO) [ 2.84 GB ] Тюльпанная лихорадка / Tulip Fever [2017 BDRip 720p] sokol_ok Скачать
2 | 0
Фильмы 2017 [DVDrip, WEB-DLRip, HDrip] (DUB, MVO) [ 2.12 GB ] Тюльпанная лихорадка / Tulip Fever [2017 BDRip-AVC] sokol_ok Скачать
2 | 0
Фильмы 2017 [DVDrip, WEB-DLRip, HDrip] (DUB, MVO) [ 1.46 GB ] Тюльпанная лихорадка / Tulip Fever [2017 BDRip] - [] Twi7ter Скачать
1 | 0
Фильмы [HD 720p, 1080p] (Хороший звук DUB, MVO) [ 7.24 GB ] Тюльпанная лихорадка / Tulip Fever [2017 BDRip 1080p] bober100 Скачать
1 | 0
Фильмы [HD 720p, 1080p] (Хороший звук DUB, MVO) [ 5.14 GB ] Тюльпанная лихорадка / Tulip Fever [2017 BDRip 720p] bober100 Скачать
1 | 0
Фильмы (Blu-ray, BD-Remux, HDDVD) [ 18.61 GB ] Тюльпанная лихорадка / Tulip Fever [2017 BD Remux 1080p] bober100 Скачать
1 | 0

28-11-2019 20:33  

Отключить всю рекламу на сайте

11-12-2017 17:28 Тюльпанная лихорадка Скачать торрент  

Замена на звук Blu-ray RUS, добавлены русские субтитры с Blu-ray RUS.pb.wtf



    Дорогой пользователь! Огромная просьба, поблагодарите релизера, оцените раздачу и оставьте свои комментарий, если Вы скачали Тюльпанная лихорадка через торрент бесплатно! Внесите свою лепту в развитие PiratBit!
    Комментировать посты могут только пользователи прошедшие не сложную регистрацию
    Показать сообщения:    

    Тюльпанная лихорадка через торрент
    Скачать бесплатно Тюльпанная лихорадка
    Тюльпанная лихорадка скачать торрент
    Тюльпанная лихорадка смотреть онлайн
    Cкачать фильм Тюльпанная лихорадка бесплатно
    Тюльпанная лихорадка скачать торрент в хорошем качестве
    Тюльпанная лихорадка смотреть онлайн бесплатно в хорошем качестве


    Вы не можете начинать темы
    Вы не можете отвечать на сообщения
    Вы не можете редактировать свои сообщения
    Вы не можете удалять свои сообщения
    Вы не можете голосовать в опросах
    Вы не можете прикреплять файлы к сообщениям
    Вы можете скачивать файлы