Мега распродажа FORZA HORIZON 4 ULTIMATE+ВСЕ DLC+ОНЛАЙН всего за 499р. 349 руб. (супер цена). Внимание количество ограничено!!!

iTunes

1+1

iTunes

мы

iTunes

1

1 сезон

Чернобыль

1 сезон

Ральф против интернета

Лицензия

ПШазам

8 сезон

Игра престолов

Лицензия

30
pack

ВАЖНО

!!Акция!!

Alien_RageХит недели

RePack

Resident Evil 21

ИГРА 18+

pack

RePack

Metro:Exodus

!!Акция!!

Alien_Rage

RePack

fifa19

RePack

Assassins Creed: Odyssey

RePack

NEED FOR SPEED™ PAYBACK

3 сезон

9 сезон

Бесстыжие 9 сезон

Все сериалы

все сериалы на PB.wtf

RePack

FAR CRY 5
Ребята, катастрофически не хватает 2730р. для оплаты серверов за ИЮНЬ (всвязи с блокировками трафик упал в 3 раза), 1-2р., выручайте.
  

Большой калибр / Loose Cannons (Боб Кларк) [1990 г, боевик, триллер, комедия, криминал, WEB-DLRip] DVO, 2xAVO pb.wtf

Большой калибр через торрент pb.wtf

Размер: 1.45 GB | Добавлен: 1 год 7 мес. назад | Торрент скачан:22 раза
Скачать  

29-11-2017 18:08 Большой калибр Скачать торрент  

Большой калибр / Loose Cannons
Год выпуска: 1990
Страна: США
Жанр: боевик, триллер, комедия, криминал
Продолжительность: 01:34:07
Перевод: Профессиональный (двухголосый), авторский

Режиссер: Боб Кларк

rating

В ролях: Дэн Эйкройд, Джин Хэкмен, Дом ДеЛуис, Ронни Кокс, Нэнси Трэвис, Роберт Проски, Пол Косло, Дик О’Нил, Ян Тришка, Леон Риппи, Роберт Ирвин Эллиотт, Херб Армстронг, Роберт Дикман, Дэвид Алан Грир, Рег Э. Кэти, Алекс Хайд-Уайт, Тобин Белл, Томас Копаче, Сьюзен Перец, Аль Манчини, Кевин МаКларнон

Описание: Они должны были стать идеальной командой. Мак Стерн — крутой вашингтонский коп-ветеран, не стесняющийся пускать в ход пудовые кулаки и верный пистолет. И Эллис Филдинг — умница детектив, чьи дедуктивные таланты заставили бы покраснеть от зависти самого Шерлока Холмса. Но, как известно, в любой бочке меда есть цистерна дегтя. Мак любезен как разъяренный бультерьер, а у Эллиса… У Эллиса, мягко говоря, не все дома. В минуты стресса он впадает в легкий психоз, начиная воображать себя то одним, то другим популярным телегероем. И вот этой невменяемой парочке поручают расследование серии убийств, как-то связанных со зловещими тайнами Третьего Рейха! Такого цирка жители Вашингтона еще не видели!..

Качество: WEB-DLRip
Формат: AVI
Видео: XviD, 1611 Кбит/с, 720x304, 23.976 кадр/с
Аудио #1: AC3, 2 ch, 192 Кбит/с | Профессиональный двухголосый
Аудио #2: AC3, 2 ch, 192 Кбит/с | Aвторский (А. Михалев)
Аудио #3: AC3, 2 ch, 192 Кбит/с | Aвторский (С. Визгунов)
Релиз от: Koenig
скриншот   скриншот   скриншот   скриншот   скриншот   скриншот  

Общее
Полное имя : Loose.Cannons.1990.WEB-DLRip.avi
Формат : AVI
Формат/Информация : Audio Video Interleave
Размер файла : 1,45 Гбайт
Продолжительность : 1 ч. 34 м.
Общий поток : 2206 Кбит/сек
Программа кодирования : VirtualDubMod 1.5.10.2 (build 2540/release)
Библиотека кодирования : VirtualDubMod build 2540/release

Видео
Идентификатор : 0
Формат : MPEG-4 Visual
Профиль формата : Advanced Simple@L5
Параметр BVOP формата : 1
Параметр QPel формата : Нет
Параметр GMC формата : Без точки перехода
Параметр матрицы формата : Выборочная
Идентификатор кодека : XVID
Идентификатор кодека/Подсказка : XviD
Продолжительность : 1 ч. 34 м.
Битрейт : 1611 Кбит/сек
Ширина : 720 пикселей
Высота : 304 пикселя
Соотношение сторон : 2,35:1
Частота кадров : 23,976 (24000/1001) кадра/сек
Цветовое пространство : YUV
Субдискретизация насыщенности : 4:2:0
Битовая глубина : 8 бит
Тип развёртки : Прогрессивная
Метод сжатия : С потерями
Бит/(Пиксели*Кадры) : 0.307
Размер потока : 1,06 Гбайт (73%)
Библиотека кодирования : XviD 65

Аудио #1
Идентификатор : 1
Формат : AC-3
Формат/Информация : Audio Coding 3
Параметр Endianness формата : Big
Идентификатор кодека : 2000
Продолжительность : 1 ч. 34 м.
Вид битрейта : Постоянный
Битрейт : 192 Кбит/сек
Каналы : 2 канала
Расположение каналов : Front: L R
Частота : 48,0 КГц
Частота кадров : 31,250 кадров/сек (1536 spf)
Битовая глубина : 16 бит
Метод сжатия : С потерями
Размер потока : 129 Мбайт (9%)
Выравнивание : Разделение по промежуткам
Продолжительность промежутка : 42 мс. (1,00 видеокадр)
Время предзагрузки промежутка : 500 мс.
ServiceKind/String : Complete Main

Аудио #2
Идентификатор : 2
Формат : AC-3
Формат/Информация : Audio Coding 3
Параметр Endianness формата : Big
Идентификатор кодека : 2000
Продолжительность : 1 ч. 34 м.
Вид битрейта : Постоянный
Битрейт : 192 Кбит/сек
Каналы : 2 канала
Расположение каналов : Front: L R
Частота : 48,0 КГц
Частота кадров : 31,250 кадров/сек (1536 spf)
Битовая глубина : 16 бит
Метод сжатия : С потерями
Размер потока : 129 Мбайт (9%)
Выравнивание : Разделение по промежуткам
Продолжительность промежутка : 42 мс. (1,00 видеокадр)
Время предзагрузки промежутка : 500 мс.
ServiceKind/String : Complete Main

Аудио #3
Идентификатор : 3
Формат : AC-3
Формат/Информация : Audio Coding 3
Параметр Endianness формата : Big
Идентификатор кодека : 2000
Продолжительность : 1 ч. 34 м.
Вид битрейта : Постоянный
Битрейт : 192 Кбит/сек
Каналы : 2 канала
Расположение каналов : Front: L R
Частота : 48,0 КГц
Частота кадров : 31,250 кадров/сек (1536 spf)
Битовая глубина : 16 бит
Метод сжатия : С потерями
Размер потока : 129 Мбайт (9%)
Выравнивание : Разделение по промежуткам
Продолжительность промежутка : 42 мс. (1,00 видеокадр)
Время предзагрузки промежутка : 500 мс.
ServiceKind/String : Complete Main

pb.wtf



Скачать Большой калибр через торрент http://pic1.kartinco.top/images/11/fohte.jpg Скачать фильм Большой калибр через торрент бесплантно в хорошем качестве Описание: Они должны были стать идеальной командой. Мак Стерн — крутой вашингтонский коп-ветеран, не стесняющийся пускать в ход пудовые ... 10 10 2
Торрент: Зарегистрирован [2017-11-29 18:08] · скачан: 22 раз
Статус: √ проверено
Размер: 1.45 GB
Как cкачать? Как скачать Большой калибр через торрент | qTorrent


>> Регистрируемся здесь <<






Отзывы и комментарии о схеме читаем и пишем здесь: ---> Отзывы и комментарии о схеме

Новые благодарочки в телеграм довольных пользователей:
скриншот   скриншот   скриншот   скриншот   скриншот
    Дорогой пользователь! Огромная просьба, поблагодарите релизера, оцените раздачу и оставьте свои комментарий, если Вы скачали Большой калибр через торрент бесплатно! Внесите свою лепту в развитие PiratBit!
    Комментировать посты могут только пользователи прошедшие не сложную регистрацию
    Показать сообщения:    

    Большой калибр через торрент
    Скачать бесплатно Большой калибр
    Большой калибр скачать торрент
    Большой калибр смотреть онлайн
    Cкачать фильм Большой калибр бесплатно
    Большой калибр скачать торрент в хорошем качестве
    Большой калибр смотреть онлайн бесплатно в хорошем качестве


    Вы не можете начинать темы
    Вы не можете отвечать на сообщения
    Вы не можете редактировать свои сообщения
    Вы не можете удалять свои сообщения
    Вы не можете голосовать в опросах
    Вы не можете прикреплять файлы к сообщениям
    Вы можете скачивать файлы