Ссылка на приватное зеркало нашего сайта всего за 1$. Внимание количество ограничено!!!

2 сезон

iTunes

1 сезон

1

iTunes

iTunes

iTunes

1 сезон

RePack

30

ИГРА 18+

pack

ВАЖНО

!!Акция!!

Alien_RageХит недели

RePack

MK11
pack

Забери бонус

RePack

jed

!!Акция!!

Alien_Rage

RePack

fifa19

RePack

Assassins Creed: Odyssey

RePack

NEED FOR SPEED™ PAYBACK

4 сезон

9 сезон

Бесстыжие 9 сезон

Все сериалы

все сериалы на PB.wtf

RePack

FAR CRY 5
  

Последняя электричка / Сезон 1 / Серии 1-8 из 8 (Анна Гресь) [2015, Мелодрама, WEB-DL 1080p] pb.wtf

Последняя электричка через торрент pb.wtf

Размер: 11.4 GB | Добавлен: 2 года 10 мес. назад | Торрент скачан:39 раз
Скачать  

30-11-2017 05:49 Последняя электричка Скачать торрент  

Последняя электричкаГод выпуска: 2015
Страна: Россия
Производство: Кинокомпания "Марс Фильм", "Toy Cinema"
Жанр: Мелодрама
Продолжительность: 8 х 00:50:00
Перевод: Не требуется
Субтитры: отсутствуют
Реклама: Отсутствует

Режиссер: Анна Гресь



В ролях:

Анастасия Панина, Кирилл Жандаров, Пётр Томашевский, Артур Ваха, Наталья Варнакова, Алла Подчуфарова, Павел Поймалов, Владимир Виноградов (I), Лариса Руснак, Станислав Боклан, Татьяна Печёнкина, Ирина Калашникова, Борис Георгиевский, Виктор Сарайкин, Виталий Салий

Описание:

Выпускница Аня живет в приемной семье и мечтает разузнать что-нибудь о своих настоящих родителях. Поиски приводят ее в театр, где Аня проходит прослушивание и получает главную роль в мюзикле. Ее внезапный взлет у многих вызывает зависть. Но, пройдя через череду взлетов и падений и раскрыв немало шокирующих семейных тайн, Аня докажет: она достойна и удачи, и признания, и счастливой любви.

Качество: WEB-DL 1080p
Формат: MKV
Видео кодек: H.264
Аудио кодек: AC3

Видео: 1920x1080 (16:9), 25 fps, MPEG-4 AVC ~4 000 kbps avg, 0.076 bit/pixel
Аудио: 48 KHz, AC3, 2 ch, ~192.00 kbps avg
скриншот   скриншот   скриншот   скриншот  

Общее
Уникальный идентификатор : 211496495702367002812661131163979232537 (0x9F1CBE50D03EB8F58EC7A1DCE05C3519)
Полное имя : D:\Poslednaja.Elektrichka.2015.WEB-DL(1080p).OlLanDGroup\01.Poslednaja.Elektrichka.2015.WEB-DL(1080p).OlLanDGroup.mkv
Формат : Matroska
Версия формата : Version 2
Размер файла : 1,43 Гбайт
Продолжительность : 48 м. 55 с.
Режим общего битрейта : Переменный
Общий поток : 4173 Кбит/сек
Дата кодирования : UTC 2017-09-03 14:17:14
Программа кодирования : mkvmerge v7.8.0 ('River Man') 32bit built on Apr 3 2015 12:11:22
Библиотека кодирования : libebml v1.3.1 + libmatroska v1.4.2

Видео
Идентификатор : 1
Формат : AVC
Формат/Информация : Advanced Video Codec
Профиль формата : High@L4
Параметр CABAC формата : Да
Параметр ReFrames формата : 3 кадра
Идентификатор кодека : V_MPEG4/ISO/AVC
Продолжительность : 48 м. 55 с.
Вид битрейта : Переменный
Битрейт : 3898 Кбит/сек
Максимальный битрейт : 40,0 Мбит/сек
Ширина : 1920 пикселей
Высота : 1080 пикселей
Соотношение сторон : 16:9
Режим частоты кадров : Постоянный
Частота кадров : 25,000 кадров/сек
Цветовое пространство : YUV
Субдискретизация насыщенности : 4:2:0
Битовая глубина : 8 бит
Тип развёртки : Прогрессивная
Бит/(Пиксели*Кадры) : 0.075
Размер потока : 1,33 Гбайт (93%)
Default : Да
Forced : Нет

Аудио
Идентификатор : 2
Формат : AC-3
Формат/Информация : Audio Coding 3
Расширение режима : CM (complete main)
Параметр Endianness формата : Big
Идентификатор кодека : A_AC3
Продолжительность : 48 м. 55 с.
Вид битрейта : Постоянный
Битрейт : 192 Кбит/сек
Каналы : 2 канала
Расположение каналов : Front: L R
Частота : 48,0 КГц
Частота кадров : 31,250 кадров/сек (1536 spf)
Метод сжатия : С потерями
Размер потока : 67,2 Мбайт (5%)
Язык : Russian
Default : Да
Forced : Нет

pb.wtf



Скачать Последняя электричка через торрент http://s019.radikal.ru/i630/1710/4c/ab0375efeacc.jpg Скачать фильм Последняя электричка через торрент бесплантно в хорошем качестве Описание: Выпускница Аня живет в приемной семье и мечтает разузнать что-нибудь о своих настоящих родителях. Поиски приводят ее в театр, где ... 10 10 3
Info! Золотая раздача, скачанное не засчитывается.
Торрент: Зарегистрирован [2017-11-30 05:49] · скачан: 39 раз
Статус: √ проверено
Размер: 11.4 GB
Как cкачать? Как скачать Последняя электричка через торрент | qTorrent

28-11-2019 20:33  

Отключить всю рекламу на сайте

    Дорогой пользователь! Огромная просьба, поблагодарите релизера, оцените раздачу и оставьте свои комментарий, если Вы скачали Последняя электричка через торрент бесплатно! Внесите свою лепту в развитие PiratBit!
    Комментировать посты могут только пользователи прошедшие не сложную регистрацию
    Показать сообщения:    

    Последняя электричка через торрент
    Скачать бесплатно Последняя электричка
    Последняя электричка скачать торрент
    Последняя электричка смотреть онлайн
    Cкачать фильм Последняя электричка бесплатно
    Последняя электричка скачать торрент в хорошем качестве
    Последняя электричка смотреть онлайн бесплатно в хорошем качестве


    Вы не можете начинать темы
    Вы не можете отвечать на сообщения
    Вы не можете редактировать свои сообщения
    Вы не можете удалять свои сообщения
    Вы не можете голосовать в опросах
    Вы не можете прикреплять файлы к сообщениям
    Вы можете скачивать файлы