Ссылка на приватное зеркало нашего сайта всего за 1$. Внимание количество ограничено!!!

2 сезон

iTunes

1 сезон

1

iTunes

iTunes

iTunes

1 сезон

RePack

30

ИГРА 18+

pack

ВАЖНО

!!Акция!!

Alien_RageХит недели

RePack

MK11
pack

Забери бонус

RePack

jed

!!Акция!!

Alien_Rage

RePack

fifa19

RePack

Assassins Creed: Odyssey

RePack

NEED FOR SPEED™ PAYBACK

4 сезон

9 сезон

Бесстыжие 9 сезон

Все сериалы

все сериалы на PB.wtf

RePack

FAR CRY 5
  

Бомбила / Ryde (Брайан Фрэнк Висцилья) [2017, ужасы, триллер, BDRip 720p] MVO [GreenРай Studio] pb.wtf

Бомбила через торрент pb.wtf

Размер: 2.68 GB | Добавлен: 2 года 10 мес. назад | Торрент скачан:163 раза
Скачать  

30-11-2017 06:16 Бомбила Скачать торрент  

Бомбила / RydeГод выпуска: 2017
Страна: США
Жанр: ужасы, триллер
Продолжительность: 01:25:11
Перевод: Любительский (многоголосый) -
Субтитры: отсутствуют

Режиссер: Брайан Фрэнк Висцилья

rating

В ролях:

Дэвид Уочс, Джессика Серфати, Ронни Альварес, Кайл Томас Шмидт, Вероника Лорен, Дельпано Виллис, Валери Линн Смит, Дилан Тейлор, Ририа Ниимура

Описание:

Девушка знакомится в баре с симпатичным парнем Полом. Через приложение она вызывает такси, и парочка едет к ней домой. Но вместо приятного времяпровождения Пол убивает новую знакомую, с её телефона вызывает того же таксиста, и водителя постигает та же участь. Заняв место за рулём такси, маньяк теперь колесит по городу и вовсю развлекается, убивая неприятных ему пассажиров.

Качество: BDRip 720p
Формат: MKV
Видео кодек: H.264
Аудио кодек: AC3

Видео: 1280x544 (2.35:1), 23.976 fps, 4000 Кбит/с
Аудио: AC3, 2 ch, 640 Кбит/с

скриншот   скриншот   скриншот  

General
Unique ID : 233378156284476389054466469573182531376 (0xAF92FF7A0191679C9BBD4DA74C4AA730)
Complete name : D:БомбилаRyde.2016.P.BDRip.720p.mkv
Format : Matroska
Format version : Version 4 / Version 2
File size : 2.68 GiB
Duration : 1 h 25 min
Overall bit rate mode : Constant
Overall bit rate : 4 466 kb/s
Encoded date : UTC 2017-11-29 07:11:39
Writing application : mkvmerge v8.3.0 ('Over the Horizon') 64bit
Writing library : libebml v1.3.1 + libmatroska v1.4.2

Video
ID : 1
Format : AVC
Format/Info : Advanced Video Codec
Format profile : Main@L3.1
Format settings, CABAC : Yes
Format settings, ReFrames : 3 frames
Codec ID : V_MPEG4/ISO/AVC
Duration : 1 h 25 min
Bit rate mode : Constant
Bit rate : 4 000 kb/s
Width : 1 280 pixels
Height : 544 pixels
Display aspect ratio : 2.35:1
Frame rate mode : Constant
Frame rate : 23.976 (23976/1000) FPS
Standard : NTSC
Color space : YUV
Chroma subsampling : 4:2:0
Bit depth : 8 bits
Scan type : Progressive
Bits/(Pixel*Frame) : 0.240
Stream size : 2.29 GiB (86%)
Language : English
Default : Yes
Forced : No
Color range : Limited

Audio
ID : 2
Format : AC-3
Format/Info : Audio Coding 3
Mode extension : CM (complete main)
Format settings, Endianness : Big
Codec ID : A_AC3
Duration : 1 h 25 min
Bit rate mode : Constant
Bit rate : 640 kb/s
Channel(s) : 2 channels
Channel positions : Front: L R
Sampling rate : 48.0 kHz
Frame rate : 31.250 FPS (1536 spf)
Compression mode : Lossy
Stream size : 393 MiB (14%)
Default : Yes
Forced : No

pb.wtf



Скачать Бомбила через торрент http://s016.radikal.ru/i336/1711/3a/284f5af12886.jpg Скачать фильм Бомбила через торрент бесплантно в хорошем качестве Описание: Девушка знакомится в баре с симпатичным парнем Полом. Через приложение она вызывает такси, и парочка едет к ней домой. Но вместо ... 10 10 7
Торрент: Зарегистрирован [2017-11-30 06:16] · скачан: 163 раз
Статус: T временная
Размер: 2.68 GB
Как cкачать? Как скачать Бомбила через торрент | qTorrent

% Раздел Тема Автор DL S | L
T Релизы по Парсеру [Игры, Сериалы и Фильмы и другое...] [ 700 MB ] Бомбила / Ryde [2016 WEB-DLRip] VO [Хихикающий доктор] Sherif Скачать
1 | 0
T Релизы по Парсеру [Игры, Сериалы и Фильмы и другое...] [ 1.37 GB ] Бомбила / Ryde [2017 HDRip] MVO [GreenРай Studio] bober100 Скачать
1 | 0

28-11-2019 20:33  

Отключить всю рекламу на сайте

    Дорогой пользователь! Огромная просьба, поблагодарите релизера, оцените раздачу и оставьте свои комментарий, если Вы скачали Бомбила через торрент бесплатно! Внесите свою лепту в развитие PiratBit!
    Комментировать посты могут только пользователи прошедшие не сложную регистрацию
    Показать сообщения:    

    Бомбила через торрент
    Скачать бесплатно Бомбила
    Бомбила скачать торрент
    Бомбила смотреть онлайн
    Cкачать фильм Бомбила бесплатно
    Бомбила скачать торрент в хорошем качестве
    Бомбила смотреть онлайн бесплатно в хорошем качестве


    Вы не можете начинать темы
    Вы не можете отвечать на сообщения
    Вы не можете редактировать свои сообщения
    Вы не можете удалять свои сообщения
    Вы не можете голосовать в опросах
    Вы не можете прикреплять файлы к сообщениям
    Вы можете скачивать файлы