Ссылка на приватное зеркало нашего сайта всего за 1$. Внимание количество ограничено!!!

2 сезон

iTunes

1 сезон

1

2 сезон

2 сезон

iTunes

1 сезон

RePack

30

Ultimate

ВАЖНО

ИГРА 18+

pack

RePack

MK11
pack

Забери бонус

RePack

jed

!!Акция!!

Alien_Rage

RePack

fifa19

RePack

Assassins Creed: Odyssey

RePack

NEED FOR SPEED™ PAYBACK

4 сезон

9 сезон

Бесстыжие 9 сезон

Все сериалы

все сериалы на PB.wtf

RePack

FAR CRY 5
  

Забытые Богом / Godless / Сезон: 1 / Серии: 1-7 из 7 (Скотт Фрэнк) [2017, вестерн, WEBRip 720p] MVO [NewStudio] pb.wtf

Забытые Богом через торрент pb.wtf

Размер: 9.48 GB | Добавлен: 2 года 11 мес. назад | Торрент скачан:119 раз
Скачать  

30-11-2017 09:16 Забытые Богом Скачать торрент  

Забытые Богом / GodlessГод выпуска: 2017
Страна: США
Жанр: вестерн
Продолжительность: 7 x ~ 00:55:00
Перевод: Профессиональный многоголосый - [NewStudio]
Субтитры: Russian (Captions), English

Режиссер: Скотт Фрэнк

rating

В ролях:

Сэмюэл Марти, Люк Робертсон, Рио Александр, Джолин Бауман, Джереми Бобб, Томас Сэнгстер, Кэйли Картер, Дональд Серроне, Ким Коутс, Джефф Дэниелс

Описание:

Действие происходит в 1884 году. Зловещий бандит, Фрэнк Гриффин, терроризирует дикий Запад в поисках своего приемного сына и одновременно бывшего партнера, Роя Гуда, которого внезапно заела совесть и он свалил от Фрэнка с награбленным с последнего налета. Поиски приводят Фрэнка к тихому городку Ла Белль, в котором, по странным обстоятельствам, обитают одни женщины.

Качество: WEBRip 720p
Формат: MKV
Видео кодек: H.264
Аудио кодек: AC3

Видео: 1280x532 at 23.976 fps, x264, ~2100 kbps avg
Аудио#1: Russian: 48 kHz, AC3, 3/2 (L,C,R,l,r) + LFE ch, ~384 kbps avg |Многоголосый закадровый, NewStudio|
Аудио#2: English: 48 kHz, AC3, 3/2 (L,C,R,l,r) + LFE ch, ~384 kbps avg

***Примечание: Без рекламы.
скриншот   скриншот   скриншот   скриншот  

Общее
Уникальный идентификатор : 246656168559289067094744914286344768822 (0xB9904006874793818A3FAA54D5498D36)
Полное имя : D:\Godless - Безбожники. Сезон 1. NewStudio. 720p\Godless.s01e01.WEBRip.720p.NewStudio.mkv
Формат : Matroska
Версия формата : Version 4 / Version 2
Размер файла : 1,44 Гбайт
Продолжительность : 1 ч. 10 м.
Общий поток : 2919 Кбит/сек
Название фильма : Godless s01e01 @ NNM-Club
Дата кодирования : UTC 2017-11-27 14:46:08
Программа кодирования : mkvmerge v6.9.1 ('Blue Panther') 64bit built on Apr 18 2014 18:23:38
Библиотека кодирования : libebml v1.3.0 + libmatroska v1.4.1

Видео
Идентификатор : 1
Формат : AVC
Формат/Информация : Advanced Video Codec
Профиль формата : High@L4.1
Параметр CABAC формата : Да
Параметр ReFrames формата : 5 кадров
Идентификатор кодека : V_MPEG4/ISO/AVC
Продолжительность : 1 ч. 10 м.
Битрейт : 2093 Кбит/сек
Ширина : 1280 пикселей
Высота : 532 пикселя
Соотношение сторон : 2,40:1
Режим частоты кадров : Постоянный
Частота кадров : 23,976 (24000/1001) кадра/сек
Цветовое пространство : YUV
Субдискретизация насыщенности : 4:2:0
Битовая глубина : 8 бит
Тип развёртки : Прогрессивная
Бит/(Пиксели*Кадры) : 0.128
Размер потока : 1,03 Гбайт (72%)
Библиотека кодирования : x264 core 152 r2851 ba24899
Настройки программы : cabac=1 / ref=5 / deblock=1:-3:-3 / analyse=0x3:0x113 / me=umh / subme=8 / psy=1 / psy_rd=1.00:0.15 / mixed_ref=1 / me_range=16 / chroma_me=1 / trellis=2 / 8x8dct=1 / cqm=0 / deadzone=21,11 / fast_pskip=0 / chroma_qp_offset=-2 / threads=17 / lookahead_threads=2 / sliced_threads=0 / nr=0 / decimate=1 / interlaced=0 / bluray_compat=0 / constrained_intra=0 / bframes=3 / b_pyramid=2 / b_adapt=1 / b_bias=0 / direct=3 / weightb=1 / open_gop=0 / weightp=2 / keyint=240 / keyint_min=23 / scenecut=40 / intra_refresh=0 / rc_lookahead=50 / rc=crf / mbtree=1 / crf=18.0 / qcomp=0.60 / qpmin=0 / qpmax=69 / qpstep=4 / ip_ratio=1.40 / aq=3:0.80
Язык : English
Default : Да
Forced : Нет

Аудио #1
Идентификатор : 2
Формат : AC-3
Формат/Информация : Audio Coding 3
Расширение режима : CM (complete main)
Параметр Endianness формата : Big
Идентификатор кодека : A_AC3
Продолжительность : 1 ч. 10 м.
Вид битрейта : Постоянный
Битрейт : 384 Кбит/сек
Каналы : 6 каналов
Расположение каналов : Front: L C R, Side: L R, LFE
Частота : 48,0 КГц
Частота кадров : 31,250 кадров/сек (1536 spf)
Метод сжатия : С потерями
Размер потока : 194 Мбайт (13%)
Язык : Russian
Default : Да
Forced : Нет

Аудио #2
Идентификатор : 3
Формат : AC-3
Формат/Информация : Audio Coding 3
Расширение режима : CM (complete main)
Параметр Endianness формата : Big
Идентификатор кодека : A_AC3
Продолжительность : 1 ч. 10 м.
Вид битрейта : Постоянный
Битрейт : 384 Кбит/сек
Каналы : 6 каналов
Расположение каналов : Front: L C R, Side: L R, LFE
Частота : 48,0 КГц
Частота кадров : 31,250 кадров/сек (1536 spf)
Метод сжатия : С потерями
Размер потока : 194 Мбайт (13%)
Язык : English
Default : Нет
Forced : Нет

Текст #1
Идентификатор : 4
Формат : UTF-8
Идентификатор кодека : S_TEXT/UTF8
Идентификатор кодека/Информация : UTF-8 Plain Text
Язык : Russian
Default : Да
Forced : Да

Текст #2
Идентификатор : 5
Формат : UTF-8
Идентификатор кодека : S_TEXT/UTF8
Идентификатор кодека/Информация : UTF-8 Plain Text
Язык : English
Default : Нет
Forced : Нет

pb.wtf



Скачать Забытые Богом через торрент http://s018.radikal.ru/i527/1711/14/f7ec2e22fde0.png Скачать фильм Забытые Богом через торрент бесплантно в хорошем качестве Описание: Действие происходит в 1884 году. Зловещий бандит, Фрэнк Гриффин, терроризирует дикий Запад в поисках своего приемного сына и ... 10 10 4
Торрент: Зарегистрирован [2017-11-30 09:16] · скачан: 119 раз
Статус: √ проверено
Размер: 9.48 GB
Как cкачать? Как скачать Забытые Богом через торрент | qTorrent

% Раздел Тема Автор DL S | L
Зарубежные сериалы [ 13.38 GB ] Забытые Богом / Godless / Сезон: 1 / Серии: 1-7 из 7 [2017 WEB-DL 1080p] MVO [LostFilm] bober100 Скачать
1 | 0
Зарубежные сериалы [ 13.72 GB ] Забытые Богом / Godless / Сезон: 1 / Серии: 1-7 из 7 [2017 WEBRip 720p] MVO [Jaskier] bober100 Скачать
1 | 0
Зарубежные сериалы [ 5.47 GB ] Забытые Богом / Godless / Сезон: 1 / Серии: 1-7 из 7 [2017 WEBRip] MVO [Jaskier] bober100 Скачать
1 | 0
Зарубежные сериалы [ 24.77 GB ] Забытые Богом / Godless / Сезон: 1 / Серии: 1-7 из 7 [2017 WEBRip 1080p] MVO [Jaskier] bober100 Скачать
1 | 0
Зарубежные сериалы [ 24.77 GB ] Забытые Богом / Безбожники / Godless / Сезон: 1 / Серии: 1-7 из 7 [2017 WEBRip 1080p] [MVO] killermax2013 Скачать
1 | 0
Зарубежные сериалы [ 8.8 GB ] Забытые Богом / Безбожники / Godless / Сезон: 1 / Серии: 1-7 из 7 [2017 WEBRip-AVC] [MVO] killermax2013 Скачать
1 | 0
Зарубежные сериалы [ 5.55 GB ] Забытые Богом / Godless / Сезон: 1 / Серии: 1-7 из 7 [2017 WEBRip] MVO [NewStudio] bober100 Скачать
1 | 0

28-11-2019 20:33  

Отключить всю рекламу на сайте

    Дорогой пользователь! Огромная просьба, поблагодарите релизера, оцените раздачу и оставьте свои комментарий, если Вы скачали Забытые Богом через торрент бесплатно! Внесите свою лепту в развитие PiratBit!
    Комментировать посты могут только пользователи прошедшие не сложную регистрацию
    Показать сообщения:    

    Забытые Богом через торрент
    Скачать бесплатно Забытые Богом
    Забытые Богом скачать торрент
    Забытые Богом смотреть онлайн
    Cкачать фильм Забытые Богом бесплатно
    Забытые Богом скачать торрент в хорошем качестве
    Забытые Богом смотреть онлайн бесплатно в хорошем качестве


    Вы не можете начинать темы
    Вы не можете отвечать на сообщения
    Вы не можете редактировать свои сообщения
    Вы не можете удалять свои сообщения
    Вы не можете голосовать в опросах
    Вы не можете прикреплять файлы к сообщениям
    Вы можете скачивать файлы