2 сезон

iTunes

MVO

1

2 сезон

iTunes

iTunes

1 сезон

RePack

30

Новинка

ВАЖНО

ИГРА 18+

pack

RePack

MK11
pack

Легкие деньги

RePack

jed

RePack

fifa19

RePack

RDR2

RePack

NEED FOR SPEED™ PAYBACK

4 сезон

9 сезон

Бесстыжие 9 сезон

Все сериалы

все сериалы на PB.wtf

RePack

FAR CRY 5

Anonymous, доброе утро, мы не успеваем собрать деньги на оплату серверов за декабрь и январь, помогите нам пожалуйста в это трудное время. В качестве благодарности мы отключим Вам всю рекламу на сайте (укажите свой ник в строку Ваше имя)!

×
  
Magnet ссылка

INNA - Nirvana [Клип] [2017, Pop, WEBRip 1080p] pb.wtf

INNA - Nirvana через торрент pb.wtf

Размер: 205 MB | Добавлен: 3 года 1 мес. назад | Торрент скачан:111 раз
Скачать  

30-11-2017 10:34 INNA - Nirvana Скачать торрент  

INNA - NirvanaГод выпуска: 2017
Жанр: Pop
Продолжительность: 00:03:15
Перевод: Оригинал
Субтитры: отсутствуют

Описание:

Мировая премьера сингла — «Nirvana». Трек является заглавным синглом к одноименному пятому студийному альбому — «Nirvana».

Качество: WEBRip 1080p
Формат: MPEG-4
Видео кодек: AVC
Аудио кодек: AAC

Видео: MPEG-4 AVC, 8773 Кбит/с, 1920х1080
Аудио: AAC, 2 ch, 126 Кбит/с
скриншот   скриншот   скриншот  

Общее
Полное имя : D:\Inna - Nirvana.mp4
Формат : MPEG-4
Профиль формата : Base Media
Идентификатор кодека : isom (isom/iso2/avc1/mp41)
Размер файла : 205 Мбайт
Продолжительность : 3 м. 14 с.
Режим общего битрейта : Постоянный
Общий поток : 8877 Кбит/сек
Дата кодирования : UTC 2017-11-29 01:25:27
Дата пометки : UTC 2017-11-29 01:25:27
Программа кодирования : Lavf57.56.100

Видео
Идентификатор : 1
Формат : AVC
Формат/Информация : Advanced Video Codec
Профиль формата : Main@L4
Параметр CABAC формата : Да
Параметр ReFrames формата : 1 кадр
Параметр GOP формата : M=1, N=25
Идентификатор кодека : avc1
Идентификатор кодека/Информация : Advanced Video Coding
Продолжительность : 3 м. 14 с.
Вид битрейта : Постоянный
Битрейт : 8773 Кбит/сек
Ширина : 1920 пикселей
Высота : 1080 пикселей
Соотношение сторон : 16:9
Режим частоты кадров : Постоянный
Частота кадров : 24,000 кадра/сек
Цветовое пространство : YUV
Субдискретизация насыщенности : 4:2:0
Битовая глубина : 8 бит
Тип развёртки : Прогрессивная
Бит/(Пиксели*Кадры) : 0.176
Размер потока : 202 Мбайт (99%)
Дата кодирования : UTC 2017-11-29 01:25:27
Дата пометки : UTC 2017-11-29 01:25:27

Аудио
Идентификатор : 2
Формат : AAC
Формат/Информация : Advanced Audio Codec
Профиль формата : LC
Идентификатор кодека : 40
Продолжительность : 3 м. 14 с.
Duration_LastFrame : 1 мс.
Вид битрейта : Постоянный
Битрейт : 126 Кбит/сек
Каналы : 2 канала
Расположение каналов : Front: L R
Частота : 44,1 КГц
Частота кадров : 43,066 кадра/сек (1024 spf)
Метод сжатия : С потерями
Размер потока : 2,91 Мбайт (1%)
Default : Да
Alternate group : 1
Дата кодирования : UTC 2017-11-29 01:25:27
Дата пометки : UTC 2017-11-29 01:25:27

pb.wtf



Скачать INNA - Nirvana через торрент http://lostpix.com/img/2017-11/29/6cglh7v59eyf3z7v5wqfqitlg.jpg Скачать фильм INNA - Nirvana [Клип] [2017, Pop, WEBRip 1080p]через торрент бесплантно в хорошем качестве Описание: Мировая премьера сингла — «Nirvana». Трек является заглавным синглом к одноименному пятому студийному альбому — ... 10 10 7
Торрент: Зарегистрирован [2017-11-30 10:34] · скачан: 111 раз
Статус: √ проверено
Размер: 205 MB
Как cкачать? Как скачать INNA - Nirvana через торрент | UTorrent

% Раздел Тема Автор DL S | L
Eurodance, Technopop, Disco (lossless) [ 262 MB ] Inna - Nirvana 2017 / FLAC / lossless / Pop Dance bober100 Скачать
1 | 0
Зарубежная Поп музыка (mp3) [ 88 MB ] Inna - Nirvana 2017 / MP3 / 320 kbps / Рор oleg8 Скачать
1 | 0

28-11-2019 20:33  

Отключить всю рекламу на сайте

30-11-2017 16:39 INNA - Nirvana Скачать торрент  

pb.wtf



    Дорогой пользователь! Огромная просьба, поблагодарите релизера, оцените раздачу и оставьте свои комментарий, если Вы скачали INNA - Nirvana через торрент бесплатно! Внесите свою лепту в развитие PiratBit!
    Комментировать посты могут только пользователи прошедшие не сложную регистрацию
    Показать сообщения:    

    INNA - Nirvana через торрент
    Скачать бесплатно INNA - Nirvana
    INNA - Nirvana скачать торрент
    INNA - Nirvana смотреть онлайн
    Cкачать фильм INNA - Nirvana бесплатно
    INNA - Nirvana скачать торрент в хорошем качестве
    INNA - Nirvana смотреть онлайн бесплатно в хорошем качестве


    Вы не можете начинать темы
    Вы не можете отвечать на сообщения
    Вы не можете редактировать свои сообщения
    Вы не можете удалять свои сообщения
    Вы не можете голосовать в опросах
    Вы не можете прикреплять файлы к сообщениям
    Вы можете скачивать файлы