Мега распродажа FORZA HORIZON 4 ULTIMATE+ВСЕ DLC+ОНЛАЙН всего за 499р. 349 руб. (супер цена). Внимание количество ограничено!!!

Лицензия

30

iTunes

мы

iTunes

1

1 сезон

Чернобыль

1 сезон

Ральф против интернета

MVO

Покемон. Детектив Пикачу

8 сезон

Игра престолов

iTunes

1+1

ИГРА 18+

pack

ВАЖНО

!!Акция!!

Alien_RageХит недели

RePack

Resident Evil 21
pack

RePack

Metro:Exodus

!!Акция!!

Alien_Rage

RePack

fifa19

RePack

Assassins Creed: Odyssey

RePack

NEED FOR SPEED™ PAYBACK

3 сезон

9 сезон

Бесстыжие 9 сезон

Все сериалы

все сериалы на PB.wtf

RePack

FAR CRY 5
Ребята, катастрофически не хватает 2730р. для оплаты серверов за МАЙ (всвязи с блокировками трафик упал в 3 раза), 1-2р., выручайте.
  

Викинги / Vikings / Сезон: 5 / Серии: 1-20 из 20 (Киаран Доннелли, Йохан Ренк, Кен Джиротти) [2017, боевик, драма, военный, история, WEB-DL 1080p] MVO [Lostfilm] pb.wtf

Викинги через торрент pb.wtf

Раздают: 2 [ 300 KB/s ] Качают: 3 [ 0 KB/s ]
Размер: 42.7 GB | Добавлен: 4 мес. 22 д. назад | Торрент скачан:122 раза
Скачать  

30-11-2017 13:47 Викинги Скачать торрент  

Викинги / Vikings Год выпуска: 2017
Страна: Ирландия, Канада
Жанр: боевик, драма, военный, история
Продолжительность: ~ 00:44:00
Перевод: Профессиональный многоголосый | Lostfilm
Субтитры: отсутствуют

Режиссер: Киаран Доннелли, Йохан Ренк, Кен Джиротти

rating

В ролях:

Трэвис Фиммел, Клайв Стэнден, Кэтрин Уинник, Гэбриел Бирн, Джессалин Гилсиг, Густаф Скарсгард, Джефферсон Холл, Джордж Благден, Тадж Мерфи, Диармэйд Мурта

Описание:

Исторический сериал «Викинги» от создателя «Тюдоров» и продюсера «Камелота» и «Борджиа» Майкла Херста расскажет о путешествиях легендарного героя скандинавских саг Рагнара Лодброка, а также о превращении молодого викинга в мудрого правителя, которого сравнивали с самим богом войны Одином. Проект канала History может похвастаться яркими персонажами, красивыми натурными съемками и эпичными батальными сценами.

Качество: WEB-DL 1080p
Формат: MKV

Видео: MPEG-4 AVC, ~ 5 300 Кбит/с, 1920x1080
Аудио: Русский (AC3, 2 ch, 384 Кбит/с)
Аудио: английский (AC3, 2 ch, 384 Кбит/с)
скриншот  скриншот  скриншот  

Общее
Уникальный идентификатор : 234784128809169137617368493236973839505 (0xB0A1C74624917AB493CB2E409099A491)
Полное имя : D:\Vikings_(s05) 1080\Vikings.S05E01.1080p.rus.LostFilm.TV.mkv
Формат : Matroska
Версия формата : Version 4 / Version 2
Размер файла : 1,83 Гбайт
Продолжительность : 43 м. 40 с.
Общий поток : 6011 Кбит/сек
Дата кодирования : UTC 2017-12-01 16:10:19
Программа кодирования : mkvmerge v7.7.0 ('Six Voices') 64bit built on Feb 28 2015 23:39:33
Библиотека кодирования : libebml v1.3.1 + libmatroska v1.4.2

Видео
Идентификатор : 1
Формат : AVC
Формат/Информация : Advanced Video Codec
Профиль формата : High@L4.1
Параметр CABAC формата : Да
Параметр RefFrames формата : 4 кадра
Идентификатор кодека : V_MPEG4/ISO/AVC
Продолжительность : 43 м. 40 с.
Битрейт : 5242 Кбит/сек
Ширина : 1912 пикселей
Высота : 1072 пикселя
Соотношение сторон : 16:9
Режим частоты кадров : Постоянный
Частота кадров : 23,976 (24000/1001) кадра/сек
Частота кадров в оригинале : 23,976 (23976/1000) кадра/сек
Цветовое пространство : YUV
Субдискретизация насыщенности : 4:2:0
Битовая глубина : 8 бит
Тип развёртки : Прогрессивная
Бит/(Пиксели*Кадры) : 0.107
Размер потока : 1,60 Гбайт (87%)
Библиотека кодирования : x264 core 112 r1834 a51816a
Настройки программы : cabac=1 / ref=4 / deblock=1:-3:-2 / analyse=0x3:0x113 / me=hex / subme=7 / psy=1 / psy_rd=1.00:0.00 / mixed_ref=1 / me_range=16 / chroma_me=1 / trellis=1 / 8x8dct=1 / cqm=0 / deadzone=21,11 / fast_pskip=1 / chroma_qp_offset=-2 / threads=12 / sliced_threads=0 / nr=0 / decimate=1 / interlaced=0 / constrained_intra=0 / bframes=5 / b_pyramid=2 / b_adapt=1 / b_bias=0 / direct=1 / weightb=1 / open_gop=0 / weightp=2 / keyint=250 / keyint_min=25 / scenecut=40 / intra_refresh=0 / rc_lookahead=40 / rc=2pass / mbtree=1 / bitrate=5242 / ratetol=1.0 / qcomp=0.60 / qpmin=0 / qpmax=51 / qpstep=4 / cplxblur=20.0 / qblur=0.5 / vbv_maxrate=10000 / vbv_bufsize=256000 / ip_ratio=1.40 / aq=1:1.00 / nal_hrd=none
Default : Да
Forced : Нет

Аудио #1
Идентификатор : 2
Формат : AC-3
Формат/Информация : Audio Coding 3
Расширение режима : CM (complete main)
Параметр Endianness формата : Big
Идентификатор кодека : A_AC3
Продолжительность : 43 м. 39 с.
Вид битрейта : Постоянный
Битрейт : 384 Кбит/сек
Каналы : 2 канала
Расположение каналов : Front: L R
Частота : 48,0 КГц
Частота кадров : 31,250 кадров/сек (1536 spf)
Метод сжатия : С потерями
Размер потока : 120 Мбайт (6%)
Default : Да
Forced : Нет

Аудио #2
Идентификатор : 3
Формат : AC-3
Формат/Информация : Audio Coding 3
Расширение режима : CM (complete main)
Параметр Endianness формата : Big
Идентификатор кодека : A_AC3
Продолжительность : 43 м. 40 с.
Вид битрейта : Постоянный
Битрейт : 384 Кбит/сек
Каналы : 2 канала
Расположение каналов : Front: L R
Частота : 48,0 КГц
Частота кадров : 31,250 кадров/сек (1536 spf)
Метод сжатия : С потерями
Размер потока : 120 Мбайт (6%)
Default : Нет
Forced : Нет

Внимание! Раздача ведётся путём добавления новых серий; при каждом добавлении создаётся новый торрент. Чтобы начать докачку новой серии, пользователям необходимо сделать следующее:
(1) остановить скачивание,
(2) удалить старый торрент у себя из клиента (старые серии удалять не надо),
(3) скачать новый торрент и запустить его у себя в клиенте вместо старого, при этом указать клиенту путь в старую папку куда и должно происходить скачивание новых серий.
Ваш клиент при этом должен произвести хеширование (проверку) старой папки (если не производит сам - помогите ему сделать это), и будет докачивать только те серии которых у вас ещё нет. Старые серии при этом не удаляются, а продолжают раздаваться!
Eсли вы уже удалили старые серии, то предотвратить повторную закачку старых серий можно, отжав галочку в соответствующих местах при запуске нового торрента. По возможности, желательно не удалять старые серии как можно дольше чтобы релизёр не столько продолжал раздавать старые серии, а смог сконцентрироваться на новых.
pb.wtf



Скачать Викинги через торрент http://s019.radikal.ru/i620/1711/28/9436405a28e9.jpg Скачать фильм Викинги через торрент бесплантно в хорошем качестве Описание: Исторический сериал «Викинги» от создателя «Тюдоров» и продюсера «Камелота» и «Борджиа» Майкла Херста расскажет о путешествиях ... 10 10 21
Info! Золотая раздача, скачанное не засчитывается.
Торрент: Зарегистрирован [2019-02-02 03:08] · скачан: 122 раз
Статус: √ проверено
Размер: 42.7 GB
Как cкачать? Как скачать Викинги через торрент | qTorrent

% Раздел Тема Автор DL S | L
Зарубежные сериалы [ 10.89 GB ] Викинги / Vikings / Сезон: 5 / Серии: 1-20 из 20 [2017 военный история WEB-DLRip] MVO [NewStudio] bober100 Скачать
4 | 0
Зарубежные сериалы [ 39.63 GB ] Викинги / Vikings / Сезон: 5 / Серии: 1-20 из 20 [2017 военный история WEBRip 1080p] MVO [GostFilm] bober100 Скачать
1 | 0
Зарубежные сериалы [ 10.69 GB ] Викинги / Vikings / Сезон: 5 / Серии: 1-20 из 20 [2017 военный история WEB-DLRip] MVO [AlexFilm] bober100 Скачать
3 | 2
Зарубежные сериалы [ 20.53 GB ] Викинги / Vikings / Сезон: 5 / Серии: 1-20 из 20 [2017 военный история WEB-DL 720p HDTVRip 720p] MVO [Jaskier] bober100 Скачать
1 | 0
Зарубежные сериалы [ 21.33 GB ] Викинги / Vikings / Сезон: 5 / Серии: 1-20 из 20 [2017 военный история WEB-DL 720p] MVO [AlexFilm] bober100 Скачать
1 | 0
Зарубежные сериалы [ 44.61 GB ] Викинги / Vikings / Сезон: 5 / Серии: 1-20 из 20 [2017 военный история WEB-DL 1080p] MVO [AlexFilm] bober100 Скачать
2 | 1
Зарубежные сериалы [ 5.2 GB ] Викинги / Vikings / Сезон: 5 / Серии 1-10 из 20 [2017 Ирландия военный WEB-DLRip] MVO [Lostfilm] GEKADOL Скачать
5 | 3


Последний раз редактировалось: bober100 (2019-02-02 03:08), всего редактировалось 11 раз(а)


>> Регистрируемся здесь <<






Отзывы и комментарии о схеме читаем и пишем здесь: ---> Отзывы и комментарии о схеме

Новые благодарочки в телеграм довольных пользователей:
скриншот   скриншот   скриншот   скриншот   скриншот

30-11-2017 13:54 Викинги Скачать торрент  

ураpb.wtf



30-11-2017 15:44 Викинги Скачать торрент  

наконец-то началосьpb.wtf



30-11-2017 17:00 Викинги Скачать торрент  

Большое Спасибо за раздачу!Правда первый раз буду смотреть в дубляже,,Колдов,, ,но просто нет мочи ждать другие переводы и так ЗАЖДАЛИСЬ!pb.wtf



30-11-2017 18:46 Викинги Скачать торрент  

Спасибо!!! УРА!!!pb.wtf



09-01-2019 18:10 Викинги Скачать торрент  

bober100, очень ждем 16 серию!)pb.wtf



28-01-2019 14:15 Викинги Скачать торрент  

ждем 20ю серию,Большое Спасибо.pb.wtf



    Дорогой пользователь! Огромная просьба, поблагодарите релизера, оцените раздачу и оставьте свои комментарий, если Вы скачали Викинги через торрент бесплатно! Внесите свою лепту в развитие PiratBit!
    Комментировать посты могут только пользователи прошедшие не сложную регистрацию
    Показать сообщения:    

    Викинги через торрент
    Скачать бесплатно Викинги
    Викинги скачать торрент
    Викинги смотреть онлайн
    Cкачать фильм Викинги бесплатно
    Викинги скачать торрент в хорошем качестве
    Викинги смотреть онлайн бесплатно в хорошем качестве


    Вы не можете начинать темы
    Вы не можете отвечать на сообщения
    Вы не можете редактировать свои сообщения
    Вы не можете удалять свои сообщения
    Вы не можете голосовать в опросах
    Вы не можете прикреплять файлы к сообщениям
    Вы можете скачивать файлы