Ссылка на приватное зеркало нашего сайта всего за 1$. Внимание количество ограничено!!!

2 сезон

iTunes

1 сезон

1

2 сезон

2 сезон

iTunes

1 сезон

RePack

30

Новинка

ВАЖНО

ИГРА 18+

pack

RePack

MK11
pack

Забери бонус

RePack

jed

!!Акция!!

Alien_Rage

RePack

fifa19

RePack

Assassins Creed: Odyssey

RePack

NEED FOR SPEED™ PAYBACK

4 сезон

9 сезон

Бесстыжие 9 сезон

Все сериалы

все сериалы на PB.wtf

RePack

FAR CRY 5
  

Викинги / Vikings / Сезон: 1-5 / Серии: 1-69 из 69 (Киаран Доннелли, Йохан Ренк, Кен Джиротти) [2013-2017, боевик, драма, военный, история, WEB-DLRip] MVO [LostFilm] pb.wtf

Викинги через торрент pb.wtf

Раздают: 4 [ 92 KB/s ] Качают: 1 [ 0 KB/s ]
Размер: 32.35 GB | Добавлен: 1 год 7 мес. назад | Торрент скачан:613 раз
Скачать  

30-11-2017 14:13 Викинги Скачать торрент  

Викинги / Vikings Год выпуска: 2013-2017
Страна: Ирландия, Канада
Жанр: боевик, драма, военный, история
Продолжительность: ~ 00:44:00
Перевод: Профессиональный (многоголосый) | LostFilm
Субтитры: отсутствуют

Режиссер: Киаран Доннелли, Йохан Ренк, Кен Джиротти

rating

В ролях:

Трэвис Фиммел, Клайв Стэнден, Кэтрин Уинник, Гэбриел Бирн, Джессалин Гилсиг, Густаф Скарсгард, Джефферсон Холл, Джордж Благден, Тадж Мерфи, Диармэйд Мурта

Описание:

Исторический сериал «Викинги» от создателя «Тюдоров» и продюсера «Камелота» и «Борджиа» Майкла Херста расскажет о путешествиях легендарного героя скандинавских саг Рагнара Лодброка, а также о превращении молодого викинга в мудрого правителя, которого сравнивали с самим богом войны Одином. Проект канала History может похвастаться яркими персонажами, красивыми натурными съемками и эпичными батальными сценами.

Качество: WEB-DLRip | чистый видеоряд |
Формат: | XviD | AVI |

Видео: ~ 1200-1400 kbps | 720x400 (16:9) | 23,976 fps
Аудио Rus: MP3 | 48.0 KHz | 2 ch | 128 kbps | LostFilm
скриншот  скриншот  скриншот  скриншот  скриншот  

Общее
Полное имя : X:\00000\Vikings\Season 05\Vikings.[S05E01].XviD.LostFilm.[qqss44].avi
Формат : AVI
Формат/Информация : Audio Video Interleave
Размер файла : 458 Мбайт
Продолжительность : 43 м.
Общий поток : 1471 Кбит/сек
Программа кодирования : VirtualDubMod 1.5.10.3 | www.virtualdub-fr.org || (build 2550/release)
Библиотека кодирования : VirtualDubMod build 2550/release

Видео
Идентификатор : 0
Формат : MPEG-4 Visual
Профиль формата : Advanced Simple@L5
Параметр BVOP формата : 2
Параметр QPel формата : Нет
Параметр GMC формата : Без точки перехода
Параметр матрицы формата : Выборочная
Идентификатор кодека : XVID
Идентификатор кодека/Подсказка : XviD
Продолжительность : 43 м.
Битрейт : 1334 Кбит/сек
Ширина : 720 пикселей
Высота : 400 пикселей
Соотношение сторон : 16:9
Частота кадров : 23,976 (23976/1000) кадра/сек
Цветовое пространство : YUV
Субдискретизация насыщенности : 4:2:0
Битовая глубина : 8 бит
Тип развёртки : Прогрессивная
Метод сжатия : С потерями
Бит/(Пиксели*Кадры) : 0.193
Размер потока : 415 Мбайт (91%)
Библиотека кодирования : XviD 73

Аудио
Идентификатор : 1
Формат : MPEG Audio
Версия формата : Version 1
Профиль формата : Layer 3
Режим : Joint stereo
Расширение режима : MS Stereo
Идентификатор кодека : 55
Идентификатор кодека/Подсказка : MP3
Продолжительность : 43 м.
Вид битрейта : Постоянный
Битрейт : 128 Кбит/сек
Каналы : 2 канала
Частота : 48,0 КГц
Метод сжатия : С потерями
Размер потока : 39,8 Мбайт (9%)
Выравнивание : Соединение по промежуткам
Продолжительность промежутка : 42 мс. (1,00 видеокадр)
Время предзагрузки промежутка : 504 мс.

Внимание! Раздача ведётся путём добавления новых серий; при каждом добавлении создаётся новый торрент. Чтобы начать докачку новой серии, пользователям необходимо сделать следующее:
(1) остановить скачивание,
(2) удалить старый торрент у себя из клиента (старые серии удалять не надо),
(3) скачать новый торрент и запустить его у себя в клиенте вместо старого, при этом указать клиенту путь в старую папку куда и должно происходить скачивание новых серий.
Ваш клиент при этом должен произвести хеширование (проверку) старой папки (если не производит сам - помогите ему сделать это), и будет докачивать только те серии которых у вас ещё нет. Старые серии при этом не удаляются, а продолжают раздаваться!
Eсли вы уже удалили старые серии, то предотвратить повторную закачку старых серий можно, отжав галочку в соответствующих местах при запуске нового торрента. По возможности, желательно не удалять старые серии как можно дольше чтобы релизёр не столько продолжал раздавать старые серии, а смог сконцентрироваться на новых.
pb.wtf



Скачать Викинги через торрент http://i74.fastpic.ru/big/2016/0219/4f/bc0fcdc3863d679dbcd811bcd087514f.gif Скачать фильм Викинги через торрент бесплантно в хорошем качестве Описание: Исторический сериал «Викинги» от создателя «Тюдоров» и продюсера «Камелота» и «Борджиа» Майкла Херста расскажет о путешествиях ... 10 10 16
Info! Серебряная раздача, засчитывается только 50% скачанного.
Торрент: Зарегистрирован [2019-04-05 01:31] · скачан: 613 раз
Статус: √ проверено
Размер: 32.35 GB
Как cкачать? Как скачать Викинги через торрент | qTorrent



Последний раз редактировалось: bober100 (2018-08-05 09:39), всего редактировалось 3 раз(а)

28-11-2019 20:33  

Отключить всю рекламу на сайте

    Дорогой пользователь! Огромная просьба, поблагодарите релизера, оцените раздачу и оставьте свои комментарий, если Вы скачали Викинги через торрент бесплатно! Внесите свою лепту в развитие PiratBit!
    Комментировать посты могут только пользователи прошедшие не сложную регистрацию
    Показать сообщения:    

    Викинги через торрент
    Скачать бесплатно Викинги
    Викинги скачать торрент
    Викинги смотреть онлайн
    Cкачать фильм Викинги бесплатно
    Викинги скачать торрент в хорошем качестве
    Викинги смотреть онлайн бесплатно в хорошем качестве


    Вы не можете начинать темы
    Вы не можете отвечать на сообщения
    Вы не можете редактировать свои сообщения
    Вы не можете удалять свои сообщения
    Вы не можете голосовать в опросах
    Вы не можете прикреплять файлы к сообщениям
    Вы можете скачивать файлы