Ребята, если до конца года каждый наш пользователь пожертвует хотя бы 10 рублей, нам хватит денег оплатить все наши расходы.

iTunes

Хэллоуин

iTunes

venom

iTunes

Вы умрете, или мы вернем вам деньги

iTunes

iTunes

Тайна дома с часами

iTunes

Ничего хорошего в отеле «Эль рояль»

1080p

Хит недели

Лицензия

Агент Джонни Инглиш 3.0

ИГРА 18+

pack

RePack

Battlefield V

RePack

Assassins Creed: Odyssey
pack

Проголосуй

Лучший релизер 2018

RePack

Darksiders 3

iTunes 4K

venom Хит недели

RePack

fifa19

!!Акция!!

Alien_RageХит недели

RePack

NEED FOR SPEED™ PAYBACK

SATRip

9 сезон

Бесстыжие 9 сезон

Все сериалы

все сериалы на PB.wtf

iTunes

Мэнди

RePack

FAR CRY 5
  

Викинги / Vikings / Сезон: 5 / Серии: 1-17 из 20 (Киаран Доннелли, Йохан Ренк, Кен Джиротти) [2017, боевик, драма, военный, история, HDTV 1080i] MVO [Amedia]

Викинги через торрент

Качают: 3 [ 0 KB/s ]
Размер: 35.8 GB | Добавлен: 6 д. назад | Торрент скачан:5 раз
Скачать  

30-11-2017 17:18 Викинги Скачать торрент  

Викинги / Vikings Год выпуска: 2017
Страна: Ирландия, Канада
Жанр: боевик, драма, военный, история
Продолжительность: ~ 00:44:00
Перевод: Профессиональный (многоголосый) | Amedia
Субтитры: Русские

Режиссер: Киаран Доннелли, Йохан Ренк, Кен Джиротти

rating

В ролях:

Трэвис Фиммел, Клайв Стэнден, Кэтрин Уинник, Гэбриел Бирн, Джессалин Гилсиг, Густаф Скарсгард, Джефферсон Холл, Джордж Благден, Тадж Мерфи, Диармэйд Мурта

Описание:

Исторический сериал «Викинги» от создателя «Тюдоров» и продюсера «Камелота» и «Борджиа» Майкла Херста расскажет о путешествиях легендарного героя скандинавских саг Рагнара Лодброка, а также о превращении молодого викинга в мудрого правителя, которого сравнивали с самим богом войны Одином. Проект канала History может похвастаться яркими персонажами, красивыми натурными съемками и эпичными батальными сценами.

Качество: HDTV 1080i
Формат: MKV
Видео кодек: H.264
Аудио кодек: AC3

Видео: ~ 6800 kbps, 1920x1080 (16:9), 23.976 fps
Аудио#1 RUS: AC3, 48 KHz, 6 ch, 384 kbp
Аудио#2 ENG: MP2, 48 KHz, 2 ch, 192 kbps
скриншот  скриншот  скриншот  скриншот  

Общее
Уникальный идентификатор : 217340346541343345508308099064899607738 (0xA3823A6837EBB2C69EA0322C46089CBA)
Полное имя : D:\B1k1Hg1.S05E01.1080р. Amedia.mkv
Формат : Matroska
Версия формата : Version 4 / Version 2
Размер файла : 2,24 Гбайт
Продолжительность : 45 м. 50 с.
Режим общего битрейта : Переменный
Общий поток : 6991 Кбит/сек
Дата кодирования : UTC 2017-11-30 15:15:13
Программа кодирования : mkvmerge v8.3.0 ('Over the Horizon') 64bit
Библиотека кодирования : libebml v1.3.1 + libmatroska v1.4.2

Видео
Идентификатор : 1
Формат : AVC
Формат/Информация : Advanced Video Codec
Профиль формата : High@L4
Параметр CABAC формата : Да
Параметр ReFrames формата : 4 кадра
Идентификатор кодека : V_MPEG4/ISO/AVC
Продолжительность : 45 м. 50 с.
Вид битрейта : Переменный
Битрейт : 6020 Кбит/сек
Максимальный битрейт : 15,0 Мбит/сек
Ширина : 1920 пикселей
Высота : 1080 пикселей
Соотношение сторон : 16:9
Режим частоты кадров : Постоянный
Частота кадров : 23,976 (24000/1001) кадра/сек
Цветовое пространство : YUV
Субдискретизация насыщенности : 4:2:0
Битовая глубина : 8 бит
Тип развёртки : Прогрессивная
Бит/(Пиксели*Кадры) : 0.121
Размер потока : 1,93 Гбайт (86%)
Язык : English
Default : Да
Forced : Нет
Цветовой диапазон : Limited
Основные цвета : BT.709
Характеристики трансфера : BT.709
Коэффициенты матрицы : BT.709

Аудио #1
Идентификатор : 2
Формат : AC-3
Формат/Информация : Audio Coding 3
Расширение режима : CM (complete main)
Параметр Endianness формата : Big
Идентификатор кодека : A_AC3
Продолжительность : 45 м. 50 с.
Вид битрейта : Постоянный
Битрейт : 192 Кбит/сек
Каналы : 2 канала
Расположение каналов : Front: L R
Частота : 48,0 КГц
Частота кадров : 31,250 кадров/сек (1536 spf)
Метод сжатия : С потерями
Размер потока : 62,9 Мбайт (3%)
Язык : Russian
Default : Да
Forced : Нет

Аудио #2
Идентификатор : 3
Формат : E-AC-3
Формат/Информация : Audio Coding 3
Параметр Endianness формата : Big
Идентификатор кодека : A_EAC3
Продолжительность : 45 м. 50 с.
Вид битрейта : Постоянный
Битрейт : 640 Кбит/сек
Каналы : 6 каналов
Расположение каналов : Front: L C R, Side: L R, LFE
Частота : 48,0 КГц
Частота кадров : 187,500 кадров/сек (256 spf)
Метод сжатия : С потерями
Размер потока : 210 Мбайт (9%)
Язык : English
Default : Нет
Forced : Нет

Текст
Идентификатор : 4
Формат : UTF-8
Идентификатор кодека : S_TEXT/UTF8
Идентификатор кодека/Информация : UTF-8 Plain Text
Язык : English
Default : Нет
Forced : Нет

Внимание! Раздача ведётся путём добавления новых серий; при каждом добавлении создаётся новый торрент. Чтобы начать докачку новой серии, пользователям необходимо сделать следующее:
(1) остановить скачивание,
(2) удалить старый торрент у себя из клиента (старые серии удалять не надо),
(3) скачать новый торрент и запустить его у себя в клиенте вместо старого, при этом указать клиенту путь в старую папку куда и должно происходить скачивание новых серий.
Ваш клиент при этом должен произвести хеширование (проверку) старой папки (если не производит сам - помогите ему сделать это), и будет докачивать только те серии которых у вас ещё нет. Старые серии при этом не удаляются, а продолжают раздаваться!
Eсли вы уже удалили старые серии, то предотвратить повторную закачку старых серий можно, отжав галочку в соответствующих местах при запуске нового торрента. По возможности, желательно не удалять старые серии как можно дольше чтобы релизёр не столько продолжал раздавать старые серии, а смог сконцентрироваться на новых.



Скачать Викинги через торрент http://i74.fastpic.ru/big/2016/0219/4f/bc0fcdc3863d679dbcd811bcd087514f.gif Скачать фильм Викинги через торрент бесплантно в хорошем качестве Описание: Исторический сериал «Викинги» от создателя «Тюдоров» и продюсера «Камелота» и «Борджиа» Майкла Херста расскажет о путешествиях ... 9.5 10 16
Торрент: Зарегистрирован [2019-01-11 13:34] · скачан: 5 раз
Статус: √ проверено
Размер: 35.8 GB
Как cкачать? Как скачать Викинги через торрент | qTorrent

% Раздел Тема Автор DL S | L
Зарубежные сериалы [ 30.82 GB ] Викинги / Vikings / Сезон: 5 / Серии: 1-15 из 20 [2017 военный история WEB-DL 1080p] MVO [Lostfilm] bober100 Скачать
2 | 13
Зарубежные сериалы [ 36.52 GB ] Викинги / Vikings / Сезон: 5 / Серии: 1-17 из 20 [2017 военный история WEB-DL 1080p] MVO [AlexFilm] bober100 Скачать
5 | 5
Зарубежные сериалы [ 5.2 GB ] Викинги / Vikings / Сезон: 5 / Серии 1-10 из 20 [2017 Ирландия военный WEB-DLRip] MVO [Lostfilm] GEKADOL Скачать
2 | 0
Зарубежные сериалы [ 23.36 GB ] Викинги / Vikings / Сезон: 5 / Серии: 1-18 из 20 [2017 военный история WEBRip 720p] MVO [GostFilm] bober100 Скачать
1 | 4
Зарубежные сериалы [ 19.34 GB ] Викинги / Vikings / Сезон: 5 / Серии: 1-17 из 20 [2017 военный история WEBRip 720p] MVO [Amedia] bober100 Скачать
2 | 4
Зарубежные сериалы [ 8.06 GB ] Викинги / Vikings / Сезон: 5 / Серии: 1-15 из 20 [2017 военный история WEB-DLRip HDTVRip] MVO [Jaskier] bober100 Скачать
2 | 0
Зарубежные сериалы [ 36.31 GB ] Викинги / Vikings / Сезон: 5 / Серии: 1-18 из 20 [2017 военный история WEBRip 1080p] MVO [GostFilm] bober100 Скачать
1 | 10


Последний раз редактировалось: bober100 (2019-01-11 13:34), всего редактировалось 5 раз(а)


>> Регистрируемся здесь <<






Отзывы и комментарии о схеме читаем и пишем здесь: ---> Отзывы и комментарии о схеме

Новые благодарочки в телеграм довольных пользователей:
скриншот   скриншот   скриншот   скриншот   скриншот

30-11-2017 18:18 Викинги Скачать торрент  

в некоторых местах перевода нет



    Дорогой пользователь! Огромная просьба, поблагодарите релизера, оцените раздачу и оставьте свои комментарий, если Вы скачали Викинги через торрент бесплатно! Внесите свою лепту в развитие PiratBit!
    Комментировать посты могут только пользователи прошедшие не сложную регистрацию
    Показать сообщения:    

    Викинги через торрент
    Скачать бесплатно Викинги
    Викинги скачать торрент
    Викинги смотреть онлайн
    Cкачать фильм Викинги бесплатно
    Викинги скачать торрент в хорошем качестве
    Викинги смотреть онлайн бесплатно в хорошем качестве


    Вы не можете начинать темы
    Вы не можете отвечать на сообщения
    Вы не можете редактировать свои сообщения
    Вы не можете удалять свои сообщения
    Вы не можете голосовать в опросах
    Вы не можете прикреплять файлы к сообщениям
    Вы можете скачивать файлы