ВНИМАНИЕ!!! Роскомнадзор заблокировал адрес pb.wtf в РФ навсегда просба перейти на piratbit.top или воспользоваться обходом блокировки

MVO

30

iTunes

Фантастические твари: Преступления Грин-де-Вальда

iTunes

1

Лицензия

гринч

iTunes

Две королевы

Лицензия

Крид 2 Хит недели

iTunes

Аквамен

iTunes

Ральф против интернета Хит недели

ИГРА 18+

pack

ВАЖНО

!!Акция!!

Alien_RageХит недели

RePack

Resident Evil 21
pack

RePack

Metro:Exodus

!!Акция!!

Alien_Rage

RePack

fifa19

RePack

Assassins Creed: Odyssey

RePack

NEED FOR SPEED™ PAYBACK

3 сезон

9 сезон

Бесстыжие 9 сезон

Все сериалы

все сериалы на PB.wtf

RePack

FAR CRY 5
Ребята, заказали программисту написание приложения для обхода блокировок на все популярные браузеры, нужно денег ему заплатить, Выручайте кто сколько может.
  

Викинги / Vikings / Сезон: 5 / Серии: 1-20 из 20 (Киаран Доннелли, Йохан Ренк, Кен Джиротти) [2017, боевик, драма, военный, история, WEB-DL 1080p] MVO [Amedia] pb.wtf

Викинги через торрент pb.wtf

Размер: 38.91 GB | Добавлен: 1 мес. 24 д. назад | Торрент скачан:9 раз
Скачать  

30-11-2017 17:18 Викинги Скачать торрент  

Викинги / Vikings Год выпуска: 2017
Страна: Ирландия, Канада
Жанр: боевик, драма, военный, история
Продолжительность: ~ 00:44:00
Перевод: Профессиональный (многоголосый) | Amedia
Субтитры: Русские, английские

Режиссер: Киаран Доннелли, Йохан Ренк, Кен Джиротти

rating

В ролях:

Трэвис Фиммел, Клайв Стэнден, Кэтрин Уинник, Гэбриел Бирн, Джессалин Гилсиг, Густаф Скарсгард, Джефферсон Холл, Джордж Благден, Тадж Мерфи, Диармэйд Мурта

Описание:

Исторический сериал «Викинги» от создателя «Тюдоров» и продюсера «Камелота» и «Борджиа» Майкла Херста расскажет о путешествиях легендарного героя скандинавских саг Рагнара Лодброка, а также о превращении молодого викинга в мудрого правителя, которого сравнивали с самим богом войны Одином. Проект канала History может похвастаться яркими персонажами, красивыми натурными съемками и эпичными батальными сценами.

Качество: WEB-DL 1080p
Формат: MKV
Видео кодек: H.264
Аудио кодек: AC3

Видео: ~ 7824 kbps, 1920x1080 (16:9), 23.976 fps
Аудио#1 RUS: AC3, 48 KHz, 6 ch, 384 kbp
Аудио#2 ENG: E-AC3, 48 KHz, 6 ch, 640 kbp
скриншот  скриншот  скриншот  скриншот  скриншот  

General
General
Unique ID : 274813931004542045274915340601379031762 (0xCEBF3CE612CA92B51AFE8255EAD88AD2)
Complete name : G:\Vikings.S05.1080p.WEB-DL.H.264.DD5.1-EniaHD\Vikings.S05E11.The.Revelation.1080p.WEB-DL.DD5.1.H.264-EniaHD.mkv
Format : Matroska
Format version : Version 4 / Version 2
File size : 2.77 GiB
Duration : 44 min 49 s
Overall bit rate : 8 851 kb/s
Movie name : Vikings.S05E11.The.Revelation.1080p.WEB-DL.DD5.1.H.264-EniaHD
Encoded date : UTC 2019-01-27 14:04:15
Writing application : mkvmerge v30.1.0 ('Forever And More') 64-bit
Writing library : libebml v1.3.6 + libmatroska v1.4.9

Video
ID : 1
Format : AVC
Format/Info : Advanced Video Codec
Format profile : High@L4
Format settings : CABAC / 4 Ref Frames
Format settings, CABAC : Yes
Format settings, ReFrames : 4 frames
Codec ID : V_MPEG4/ISO/AVC
Duration : 44 min 49 s
Bit rate mode : Constant
Bit rate : 7 824 kb/s
Nominal bit rate : 10 000 kb/s
Width : 1 920 pixels
Height : 1 080 pixels
Display aspect ratio : 16:9
Frame rate mode : Constant
Frame rate : 23.976 (24000/1001) FPS
Color space : YUV
Chroma subsampling : 4:2:0
Bit depth : 8 bits
Scan type : Progressive
Bits/(Pixel*Frame) : 0.157
Stream size : 2.45 GiB (88%)
Language : English
Default : Yes
Forced : No
Color range : Limited
Color primaries : BT.709
Transfer characteristics : BT.709
Matrix coefficients : BT.709

Audio #1
ID : 2
Format : AC-3
Format/Info : Audio Coding 3
Codec ID : A_AC3
Duration : 44 min 49 s
Bit rate mode : Constant
Bit rate : 384 kb/s
Channel(s) : 6 channels
Channel positions : Front: L C R, Side: L R, LFE
Sampling rate : 48.0 kHz
Frame rate : 31.250 FPS (1536 SPF)
Bit depth : 16 bits
Compression mode : Lossy
Stream size : 123 MiB (4%)
Title : SDI Media
Language : Russian
Service kind : Complete Main
Default : Yes
Forced : No

Audio #2
ID : 3
Format : E-AC-3
Format/Info : Enhanced Audio Coding 3
Codec ID : A_EAC3
Duration : 44 min 49 s
Bit rate mode : Constant
Bit rate : 640 kb/s
Channel(s) : 6 channels
Channel positions : Front: L C R, Side: L R, LFE
Sampling rate : 48.0 kHz
Frame rate : 187.500 FPS (256 SPF)
Compression mode : Lossy
Stream size : 205 MiB (7%)
Language : English
Service kind : Complete Main
Default : No
Forced : No

Text #1
ID : 4
Format : UTF-8
Codec ID : S_TEXT/UTF8
Codec ID/Info : UTF-8 Plain Text
Duration : 43 min 39 s
Bit rate : 75 b/s
Count of elements : 561
Stream size : 24.2 KiB (0%)
Language : Russian
Default : No
Forced : No

Text #2
ID : 5
Format : UTF-8
Codec ID : S_TEXT/UTF8
Codec ID/Info : UTF-8 Plain Text
Duration : 43 min 49 s
Bit rate : 51 b/s
Count of elements : 609
Stream size : 16.4 KiB (0%)
Title : SDH
Language : English
Default : No
Forced : No

Внимание! Раздача ведётся путём добавления новых серий; при каждом добавлении создаётся новый торрент. Чтобы начать докачку новой серии, пользователям необходимо сделать следующее:
(1) остановить скачивание,
(2) удалить старый торрент у себя из клиента (старые серии удалять не надо),
(3) скачать новый торрент и запустить его у себя в клиенте вместо старого, при этом указать клиенту путь в старую папку куда и должно происходить скачивание новых серий.
Ваш клиент при этом должен произвести хеширование (проверку) старой папки (если не производит сам - помогите ему сделать это), и будет докачивать только те серии которых у вас ещё нет. Старые серии при этом не удаляются, а продолжают раздаваться!
Eсли вы уже удалили старые серии, то предотвратить повторную закачку старых серий можно, отжав галочку в соответствующих местах при запуске нового торрента. По возможности, желательно не удалять старые серии как можно дольше чтобы релизёр не столько продолжал раздавать старые серии, а смог сконцентрироваться на новых.
pb.wtf



Скачать Викинги через торрент http://i74.fastpic.ru/big/2016/0219/4f/bc0fcdc3863d679dbcd811bcd087514f.gif Скачать фильм Викинги через торрент бесплантно в хорошем качестве Описание: Исторический сериал «Викинги» от создателя «Тюдоров» и продюсера «Камелота» и «Борджиа» Майкла Херста расскажет о путешествиях ... 9.6 10 18
Торрент: Зарегистрирован [2019-02-01 14:26] · скачан: 9 раз
Статус: √ проверено
Размер: 38.91 GB
Как cкачать? Как скачать Викинги через торрент | qTorrent

% Раздел Тема Автор DL S | L
Зарубежные сериалы [ 39.63 GB ] Викинги / Vikings / Сезон: 5 / Серии: 1-20 из 20 [2017 военный история WEBRip 1080p] MVO [GostFilm] bober100 Скачать
2 | 1
Зарубежные сериалы [ 42.7 GB ] Викинги / Vikings / Сезон: 5 / Серии: 1-20 из 20 [2017 военный история WEB-DL 1080p] MVO [Lostfilm] bober100 Скачать
4 | 3
Зарубежные сериалы [ 10.69 GB ] Викинги / Vikings / Сезон: 5 / Серии: 1-20 из 20 [2017 военный история WEB-DLRip] MVO [AlexFilm] bober100 Скачать
3 | 2
Зарубежные сериалы [ 20.53 GB ] Викинги / Vikings / Сезон: 5 / Серии: 1-20 из 20 [2017 военный история WEB-DL 720p HDTVRip 720p] MVO [Jaskier] bober100 Скачать
2 | 0
Зарубежные сериалы [ 21.33 GB ] Викинги / Vikings / Сезон: 5 / Серии: 1-20 из 20 [2017 военный история WEB-DL 720p] MVO [AlexFilm] bober100 Скачать
1 | 0
Зарубежные сериалы [ 44.61 GB ] Викинги / Vikings / Сезон: 5 / Серии: 1-20 из 20 [2017 военный история WEB-DL 1080p] MVO [AlexFilm] bober100 Скачать
2 | 0
Зарубежные сериалы [ 5.2 GB ] Викинги / Vikings / Сезон: 5 / Серии 1-10 из 20 [2017 Ирландия военный WEB-DLRip] MVO [Lostfilm] GEKADOL Скачать
2 | 1


Последний раз редактировалось: bober100 (2019-02-01 14:26), всего редактировалось 8 раз(а)


>> Регистрируемся здесь <<






Отзывы и комментарии о схеме читаем и пишем здесь: ---> Отзывы и комментарии о схеме

Новые благодарочки в телеграм довольных пользователей:
скриншот   скриншот   скриншот   скриншот   скриншот
    Дорогой пользователь! Огромная просьба, поблагодарите релизера, оцените раздачу и оставьте свои комментарий, если Вы скачали Викинги через торрент бесплатно! Внесите свою лепту в развитие PiratBit!
    Комментировать посты могут только пользователи прошедшие не сложную регистрацию
    Показать сообщения:    

    Викинги через торрент
    Скачать бесплатно Викинги
    Викинги скачать торрент
    Викинги смотреть онлайн
    Cкачать фильм Викинги бесплатно
    Викинги скачать торрент в хорошем качестве
    Викинги смотреть онлайн бесплатно в хорошем качестве


    Вы не можете начинать темы
    Вы не можете отвечать на сообщения
    Вы не можете редактировать свои сообщения
    Вы не можете удалять свои сообщения
    Вы не можете голосовать в опросах
    Вы не можете прикреплять файлы к сообщениям
    Вы можете скачивать файлы