Ссылка на приватное зеркало нашего сайта всего за 1$. Внимание количество ограничено!!!

2 сезон

iTunes

1 сезон

1

2 сезон

2 сезон

iTunes

1 сезон

RePack

30

Новинка

ВАЖНО

ИГРА 18+

pack

RePack

MK11
pack

Забери бонус

RePack

jed

!!Акция!!

Alien_Rage

RePack

fifa19

RePack

Assassins Creed: Odyssey

RePack

NEED FOR SPEED™ PAYBACK

4 сезон

9 сезон

Бесстыжие 9 сезон

Все сериалы

все сериалы на PB.wtf

RePack

FAR CRY 5
  

Забытые Богом / Безбожники / Godless / Сезон: 1 / Серии: 1-7 из 7 (Скотт Фрэнк) [2017, Вестерн, WEBRip-AVC] [MVO] (NewStudio) pb.wtf

Забытые Богом через торрент pb.wtf

Размер: 8.8 GB | Добавлен: 2 года 11 мес. назад | Торрент скачан:125 раз
Скачать  

30-11-2017 18:14 Забытые Богом Скачать торрент  

Забытые Богом / Безбожники / Godless Год выпуска: 2017
Страна: США
Жанр: Вестерн
Продолжительность: ~01:10:46
Озвучание: Профессиональное (многоголосое закадровое) NewStudio
Перевод: Андрей Савельев, Григорий Сенин, Олександра Иванова

Режиссёр: Скотт Фрэнк

В ролях: Сэмюэл Марти, Люк Робертсон, Рио Александр, Джолин Бауман, Джереми Бобб, Томас Сэнгстер, Кэйли Картер, Дональд Серроне, Ким Коутс, Джефф Дэниелс и другие.

Описание: Действие происходит в 1884 году. Зловещий бандит, Фрэнк Гриффин, терроризирует дикий Запад в поисках своего приемного сына и одновременно бывшего партнера, Роя Гуда, которого внезапно заела совесть и он свалил от Фрэнка с награбленным с последнего налета. Поиски приводят Фрэнка к тихому городку Ла Белль, в котором, по странным обстоятельствам, обитают одни женщины.


Производство рипов: Atla22



Качество: WEBRip-AVC
Формат: MKV
Видео: MPEG-4 AVC, ~ 2000 Кбит/с, 1024x424, 23.976 fps
Аудио # Rus: AC3, 48 kHz, 6 ch, 384 kbps
Аудио # Eng: AC3, 48 kHz, 6 ch, 384 kbps
Субтитры: Русские (форсированные), английские
General
Unique ID : 187508474540233829237541758858542259405 (0x8D10D18F661269C6861AF5E70A091CCD)
Complete name : E:\Безбожники. Сериал (WEBRip AVC)\1-01. Инцидент в Криде.mkv
Format : Matroska
Format version : Version 2
File size : 1.37 GiB
Duration : 1 h 10 min
Overall bit rate : 2 769 kb/s
Encoded date : UTC 2017-11-27 19:13:19
Writing application : mkvmerge v7.8.0 ('River Man') 32bit built on Apr 3 2015 12:11:22
Writing library : libebml v1.3.1 + libmatroska v1.4.2

Video
ID : 1
Format : AVC
Format/Info : Advanced Video Codec
Format profile : High@L3.1
Format settings : CABAC / 3 Ref Frames
Format settings, CABAC : Yes
Format settings, RefFrames : 3 frames
Codec ID : V_MPEG4/ISO/AVC
Duration : 1 h 10 min
Bit rate : 1 946 kb/s
Width : 1 024 pixels
Height : 424 pixels
Display aspect ratio : 2.40:1
Frame rate mode : Constant
Frame rate : 23.976 (24000/1001) FPS
Color space : YUV
Chroma subsampling : 4:2:0
Bit depth : 8 bits
Scan type : Progressive
Bits/(Pixel*Frame) : 0.187
Stream size : 985 MiB (70%)
Language : English
Default : Yes
Forced : No

Audio #1
ID : 2
Format : AC-3
Format/Info : Audio Coding 3
Format settings, Endianness : Big
Codec ID : A_AC3
Duration : 1 h 10 min
Bit rate mode : Constant
Bit rate : 384 kb/s
Channel(s) : 6 channels
Channel positions : Front: L C R, Side: L R, LFE
Sampling rate : 48.0 kHz
Frame rate : 31.250 FPS (1536 SPF)
Bit depth : 16 bits
Compression mode : Lossy
Stream size : 194 MiB (14%)
Language : Russian
Service kind : Complete Main
Default : Yes
Forced : No

Audio #2
ID : 3
Format : AC-3
Format/Info : Audio Coding 3
Format settings, Endianness : Big
Codec ID : A_AC3
Duration : 1 h 10 min
Bit rate mode : Constant
Bit rate : 384 kb/s
Channel(s) : 6 channels
Channel positions : Front: L C R, Side: L R, LFE
Sampling rate : 48.0 kHz
Frame rate : 31.250 FPS (1536 SPF)
Bit depth : 16 bits
Compression mode : Lossy
Stream size : 194 MiB (14%)
Language : English
Service kind : Complete Main
Default : No
Forced : No

Text #1
ID : 4
Format : UTF-8
Codec ID : S_TEXT/UTF8
Codec ID/Info : UTF-8 Plain Text
Title : Forced
Language : Russian
Default : Yes
Forced : No

Text #2
ID : 5
Format : UTF-8
Codec ID : S_TEXT/UTF8
Codec ID/Info : UTF-8 Plain Text
Language : English
Default : No
Forced : No
скриншот  скриншот  скриншот  
pb.wtf



Скачать Забытые Богом через торрент http://i97.fastpic.ru/big/2017/1107/12/5ec01e00ba232d4cb0ca245c0f2a0112.png Скачать фильм Забытые Богом через торрент бесплантно в хорошем качестве Описание: Действие происходит в 1884 году. Зловещий бандит, Фрэнк Гриффин, терроризирует дикий Запад в поисках своего приемного сына и ... 8.5 10 2
Торрент: Зарегистрирован [2017-11-30 18:14] · скачан: 125 раз
Статус: √ проверено
Размер: 8.8 GB
Как cкачать? Как скачать Забытые Богом через торрент | qTorrent

% Раздел Тема Автор DL S | L
Зарубежные сериалы [ 24.77 GB ] Забытые Богом / Безбожники / Godless / Сезон: 1 / Серии: 1-7 из 7 [2017 WEBRip 1080p] [MVO] killermax2013 Скачать
1 | 0

28-11-2019 20:33  

Отключить всю рекламу на сайте

    Дорогой пользователь! Огромная просьба, поблагодарите релизера, оцените раздачу и оставьте свои комментарий, если Вы скачали Забытые Богом через торрент бесплатно! Внесите свою лепту в развитие PiratBit!
    Комментировать посты могут только пользователи прошедшие не сложную регистрацию
    Показать сообщения:    

    Забытые Богом через торрент
    Скачать бесплатно Забытые Богом
    Забытые Богом скачать торрент
    Забытые Богом смотреть онлайн
    Cкачать фильм Забытые Богом бесплатно
    Забытые Богом скачать торрент в хорошем качестве
    Забытые Богом смотреть онлайн бесплатно в хорошем качестве


    Вы не можете начинать темы
    Вы не можете отвечать на сообщения
    Вы не можете редактировать свои сообщения
    Вы не можете удалять свои сообщения
    Вы не можете голосовать в опросах
    Вы не можете прикреплять файлы к сообщениям
    Вы можете скачивать файлы