Ссылка на приватное зеркало нашего сайта всего за 1$. Внимание количество ограничено!!!

2 сезон

iTunes

1 сезон

1

2 сезон

2 сезон

iTunes

1 сезон

RePack

30

Новинка

ВАЖНО

ИГРА 18+

pack

RePack

MK11
pack

Забери бонус

RePack

jed

!!Акция!!

Alien_Rage

RePack

fifa19

RePack

Assassins Creed: Odyssey

RePack

NEED FOR SPEED™ PAYBACK

4 сезон

9 сезон

Бесстыжие 9 сезон

Все сериалы

все сериалы на PB.wtf

RePack

FAR CRY 5
  

Побег из тюрьмы / Prison Break / Сезон: 1 / Серии: 1-8 из 22 (Пол Шойринг) [2005 г., Боевик, Триллер, Драма, Криминал, Детектив, BDRip 720p] DUB [Рен-Тв] pb.wtf

Побег из тюрьмы через торрент pb.wtf

Размер: 17.34 GB | Добавлен: 2 года 11 мес. назад | Торрент скачан:0 раз
Скачать  

30-11-2017 21:52 Побег из тюрьмы Скачать торрент  

Побег из тюрьмы / Prison Break /
Сезон: 1 / Серии: 1-8 из 22
Год выпуска: 2005
Страна: США
Жанр: Боевик, Триллер, Драма, Криминал, Детектив
Продолжительность: 00:44:00 серия
Перевод: Полное дублирование (Рен-Тв)
Субтитры: отсутствуют

Режиссер: Бобби Рот, Майя Врвило, Кевин Хукс

Премьера в мире: 29 августа 2005

rating

В ролях: Вентворт Миллер, Доминик Пёрселл, Амори Ноласко, Роберт Неппер, Сара Уэйн Кэллис, Уэйд Уильямс, Уильям Фихтнер, Марк Фойерстин, Марина Бенедикт, Пол Адельштейн

Описание: Майкл убежден в невиновности брата, осужденного на казнь, и решает сам восстановить справедливость. Он намеренно совершает преступление, за которое попадает в ту самую тюрьму, где сидит брат. Ту самую, которую Майкл хорошо знает, потому что сам же ее и создавал, как инженер-строитель… План спасения гениально прост…

Качество: BDRip 720p
Формат: MKV
Видео кодек: H.264
Аудио кодек: AC3
Видео: AVC/H.264, 1280х720 (16:9), ~6700 kbps, 0.303 bit/pixel
Аудио#1: Русский: AC3, 6 ch, 384 kbps - Полное дублирование (Рен-Тв)
Релиз от: winchester00100010
Эпизод 1. Пилот
Эпизод 2. Аллен
Эпизод 3. Проверка
Эпизод 4. Хитрый яд
Эпизод 5. Инглиш, Фитц или Перси
Эпизод 6. Беспорядки, сверло и дьявол - часть 1
Эпизод 7. Беспорядки, сверло и дьявол - часть 2
Эпизод 8. Старый конь

Общее
Уникальный идентификатор : 246125962207981088177045519173119341840 (0xB92A22D5885122EBA3DD190DB0637510)
Полное имя : D:\Торрент файлы раздач вместе с фильмами\Prison.Break.S01.2005.BDRip.720р\Prison.Break.S01E01.BDRip.720p.mkv
Формат : Matroska
Версия формата : Version 2
Размер файла : 2,16 Гбайт
Продолжительность : 43 м. 41 с.
Общий поток : 7083 Кбит/сек
Дата кодирования : UTC 2017-11-29 01:59:27
Программа кодирования : mkvmerge v7.8.0 ('River Man') 32bit built on Apr 3 2015 12:11:22
Библиотека кодирования : libebml v1.3.1 + libmatroska v1.4.2

Видео
Идентификатор : 1
Формат : AVC
Формат/Информация : Advanced Video Codec
Профиль формата : High@L4.1
Настройки формата : CABAC / 9 Ref Frames
Параметр CABAC формата : Да
Параметр RefFrames формата : 9 кадров
Идентификатор кодека : V_MPEG4/ISO/AVC
Продолжительность : 43 м. 41 с.
Битрейт : 6700 Кбит/сек
Ширина : 1280 пикселей
Высота : 720 пикселей
Соотношение сторон : 16:9
Режим частоты кадров : Постоянный
Частота кадров : 23,976 (24000/1001) кадра/сек
Цветовое пространство : YUV
Субдискретизация насыщенности : 4:2:0
Битовая глубина : 8 бит
Тип развёртки : Прогрессивная
Бит/(Пиксели*Кадры) : 0.303
Размер потока : 2,00 Гбайт (93%)
Библиотека кодирования : x264 core 146 r2538 121396c
Настройки программы : cabac=1 / ref=9 / deblock=1:-3:-3 / analyse=0x3:0x113 / me=umh / subme=9 / psy=1 / psy_rd=1.00:0.00 / mixed_ref=1 / me_range=24 / chroma_me=1 / trellis=2 / 8x8dct=1 / cqm=0 / deadzone=21,11 / fast_pskip=0 / chroma_qp_offset=-2 / threads=12 / lookahead_threads=2 / sliced_threads=0 / nr=0 / decimate=0 / interlaced=0 / bluray_compat=0 / constrained_intra=0 / bframes=6 / b_pyramid=2 / b_adapt=2 / b_bias=0 / direct=3 / weightb=1 / open_gop=0 / weightp=2 / keyint=240 / keyint_min=23 / scenecut=40 / intra_refresh=0 / rc_lookahead=40 / rc=2pass / mbtree=0 / bitrate=6700 / ratetol=1.0 / qcomp=0.60 / qpmin=0 / qpmax=69 / qpstep=4 / cplxblur=20.0 / qblur=0.5 / vbv_maxrate=50000 / vbv_bufsize=62500 / nal_hrd=none / filler=0 / ip_ratio=1.40 / pb_ratio=1.30 / aq=1:1.00
Default : Да
Forced : Нет

Аудио
Идентификатор : 2
Формат : AC-3
Формат/Информация : Audio Coding 3
Идентификатор кодека : A_AC3
Продолжительность : 43 м. 41 с.
Вид битрейта : Постоянный
Битрейт : 384 Кбит/сек
Каналы : 6 каналов
Расположение каналов : Front: L C R, Side: L R, LFE
Частота : 48,0 КГц
Частота кадров : 31,250 кадров/сек (1536 SPF)
Битовая глубина : 16 бит
Метод сжатия : С потерями
Размер потока : 120 Мбайт (5%)
ServiceKind/String : Complete Main
Default : Да
Forced : Нет

; при каждом добавлении создётся новый торрент. Чтобы начать докачку новой серии, пользователям необходимо сделать следующее:
1. Остановить скачивание.
2. Удалить старый торрент у себя из клиента (старые серии удалять не надо).
3. Скачать новый торрент и запустить его у себя в клиенте вместо старого, при этом указать клиенту путь в старую папку куда и должно происходить скачивание новых серий.
Ваш клиент при этом должен произвести хеширование (проверку) старой папки (если не производит сам - помогите ему сделать это), и будет докачивать только те серии которых у вас ещё нет. Старые серии при этом не удаляются, а продолжают раздаваться!
Eсли вы уже удалили старые серии, то предотвратить повторную закачку старых серий можно, отжав галочку в соответствующих местах при запуске нового торрента. По возможности, желательно не удалять старые серии как можно дольше чтобы релизёр не столько продолжал раздавать старые серии, а смог сконцентрироваться на новых.
pb.wtf



Скачать Побег из тюрьмы через торрент http://pic1.kartinco.top/images/11/olb8m.jpg Скачать фильм Побег из тюрьмы через торрент бесплантно в хорошем качестве Описание: Майкл убежден в невиновности брата, осужденного на казнь, и решает сам восстановить справедливость. Он намеренно совершает ... 10 10 4
Info! Золотая раздача, скачанное не засчитывается.
Торрент: Зарегистрирован [2017-12-11 16:39] · скачан: 0 раз
Статус: √ проверено
Размер: 17.34 GB
Как cкачать? Как скачать Побег из тюрьмы через торрент | qTorrent

% Раздел Тема Автор DL S | L
Побег (Prison Break) [ 5.04 GB ] Побег из тюрьмы / Prison Break 4 [2008 BDRip] DUB Joup Скачать
1 | 0


Последний раз редактировалось: winchester00100010 (2017-12-11 16:39), всего редактировалось 4 раз(а)

28-11-2019 20:33  

Отключить всю рекламу на сайте

    Дорогой пользователь! Огромная просьба, поблагодарите релизера, оцените раздачу и оставьте свои комментарий, если Вы скачали Побег из тюрьмы через торрент бесплатно! Внесите свою лепту в развитие PiratBit!
    Комментировать посты могут только пользователи прошедшие не сложную регистрацию
    Показать сообщения:    

    Побег из тюрьмы через торрент
    Скачать бесплатно Побег из тюрьмы
    Побег из тюрьмы скачать торрент
    Побег из тюрьмы смотреть онлайн
    Cкачать фильм Побег из тюрьмы бесплатно
    Побег из тюрьмы скачать торрент в хорошем качестве
    Побег из тюрьмы смотреть онлайн бесплатно в хорошем качестве


    Вы не можете начинать темы
    Вы не можете отвечать на сообщения
    Вы не можете редактировать свои сообщения
    Вы не можете удалять свои сообщения
    Вы не можете голосовать в опросах
    Вы не можете прикреплять файлы к сообщениям
    Вы можете скачивать файлы