Ссылка на приватное зеркало нашего сайта всего за 1$. Внимание количество ограничено!!!

2 сезон

iTunes

1 сезон

1

2 сезон

2 сезон

iTunes

1 сезон

RePack

30

Новинка

ВАЖНО

ИГРА 18+

pack

RePack

MK11
pack

Забери бонус

RePack

jed

!!Акция!!

Alien_Rage

RePack

fifa19

RePack

Assassins Creed: Odyssey

RePack

NEED FOR SPEED™ PAYBACK

4 сезон

9 сезон

Бесстыжие 9 сезон

Все сериалы

все сериалы на PB.wtf

RePack

FAR CRY 5
  

Тьма / Dark / Сезон: 1 / Серии 1-10 из 10 (Баран бо Одар) [2017, Германия, триллер, драма, криминал, детектив, WEBRip 1080p] MVO [BaibaKo] pb.wtf

Тьма через торрент pb.wtf

Раздают: 1 [ 0 KB/s ]
Размер: 13.89 GB | Добавлен: 2 года 11 мес. назад | Торрент скачан:273 раза
Скачать  

02-12-2017 02:12 Тьма Скачать торрент  

Тьма / Dark


  • Год выпуска: 2017
  • Страна: Германия
  • Жанр: триллер, драма, криминал, детектив
  • Продолжительность: ~ 00:50:00 (Серия)
  • Перевод: Профессиональный многоголосый закадровый [BaibaKo]
  • Режиссер: Баран бо Одар
  • В ролях:
    Оливер Мазуччи, Каролина Эйхгорн, Йордис Трибель, Луис Хофманн, Майя Шёне, Штефан Кампвирт, Даан Леннард Либренц, Андреас Пичман, Дебора Кауфман, Татя Зайбт и др.



  • Семейная драма со сверхъестественным уклоном разворачивается в тихом городке Винден. Но приходит время расплатиться всем за грехи. Таинственным образом исчезают двое детей, поиск которых заканчивается очередными неудачами. Занимаются раскрытием ужасающего преступления все силы полиции, но, чтобы отыскать истину в случившемся, нужно заглянуть в прошлое. Родители в отчаянии пытаются понять, почему такое злодеяние произошло именно с ними. Что скрывают жители тихого городка? Поселок, где все жители являются соседями, имеет только видимое благополучие. Наружу начинают выплывать различные неприятные подробности давних отношений. Трагедии каким-то образом связаны с датами исчезновения. Жуткие обстоятельства разоблачают двойную жизнь уважаемых семейств. Все ответы на вопросы, окутанные мистикой, скрыты в событиях, происходивших в 1986 году. Поиск преступника открывает неожиданные подробности, что в городе давно уже происходят страшные преступления.
  • Рейтинг:

    rating
  • Качество: WEBRip 1080p
  • Формат: :MKV
  • Видео кодек: AVC
  • Аудио кодек: AC3
  • Видео: 4427 Кбит/сек, 1920*1080 (16:9), в 24,000 кадра/сек, AVC
  • Аудио №1: русский 384 Кбит/сек, 48,0 КГц, 16 бит, 6 каналов, AC-3 |[BaibaKo]|
  • Аудио №2: немецкий 384 Кбит/сек, 48,0 КГц, 16 бит, 6 каналов, AC-3
  • Релиз от: GEKADOL

    Внимание! Раздача ведётся путём добавления новых серий; при каждом добавлении создаётся новый торрент. Чтобы начать докачку новой серии, пользователям необходимо сделать следующее:
    (1) остановить скачивание,
    (2) удалить старый торрент у себя из клиента (старые серии удалять не надо),
    (3) скачать новый торрент и запустить его у себя в клиенте вместо старого, при этом указать клиенту путь в старую папку куда и должно происходить скачивание новых серий.
    Ваш клиент при этом должен произвести хеширование (проверку) старой папки (если не производит сам - помогите ему сделать это), и будет докачивать только те серии которых у вас ещё нет. Старые серии при этом не удаляются, а продолжают раздаваться!
    Eсли вы уже удалили старые серии, то предотвратить повторную закачку старых серий можно, отжав галочку в соответствующих местах при запуске нового торрента. По возможности, желательно не удалять старые серии как можно дольше чтобы релизёр не столько продолжал раздавать старые серии, а смог сконцентрироваться на новых.
    Общее
    Уникальный идентификатор : 177299185400382509300657311750251745836 (0x856294BE3D0139AF9E704148AFC2122C)
    Полное имя : F:\Тьма (Dark)\Dark.s01e01.HD1080p.WEBRip.Rus.Ger.BaibaKo.tv.mkv
    Формат : Matroska
    Версия формата : Version 4 / Version 2
    Размер файла : 1,76 Гбайт
    Продолжительность : 48 м. 22 с.
    Режим общего битрейта : Переменный
    Общий поток : 5197 Кбит/сек
    Дата кодирования : UTC 2017-12-02 01:47:30
    Программа кодирования : mkvmerge v17.0.0 ('Be Ur Friend') 64-bit
    Библиотека кодирования : libebml v1.3.5 + libmatroska v1.4.8

    Видео
    Идентификатор : 1
    Формат : AVC
    Формат/Информация : Advanced Video Codec
    Профиль формата : Main@L4
    Настройки формата : CABAC / 3 Ref Frames
    Параметр CABAC формата : Да
    Параметр RefFrames формата : 3 кадра
    Идентификатор кодека : V_MPEG4/ISO/AVC
    Продолжительность : 48 м. 22 с.
    Вид битрейта : Переменный
    Битрейт : 4427 Кбит/сек
    Максимальный битрейт : 6630 Кбит/сек
    Ширина : 1920 пикселей
    Высота : 1080 пикселей
    Соотношение сторон : 16:9
    Режим частоты кадров : Постоянный
    Частота кадров : 24,000 кадра/сек
    Цветовое пространство : YUV
    Субдискретизация насыщенности : 4:2:0
    Битовая глубина : 8 бит
    Тип развёртки : Прогрессивная
    Бит/(Пиксели*Кадры) : 0.089
    Размер потока : 1,50 Гбайт (85%)
    Default : Нет
    Forced : Нет

    Аудио #1
    Идентификатор : 2
    Формат : AC-3
    Формат/Информация : Audio Coding 3
    Идентификатор кодека : A_AC3
    Продолжительность : 48 м. 22 с.
    Вид битрейта : Постоянный
    Битрейт : 384 Кбит/сек
    Каналы : 6 каналов
    Расположение каналов : Front: L C R, Side: L R, LFE
    Частота : 48,0 КГц
    Частота кадров : 31,250 кадров/сек (1536 SPF)
    Битовая глубина : 16 бит
    Метод сжатия : С потерями
    Задержка видео : 16 мс.
    Размер потока : 133 Мбайт (7%)
    Язык : Russian
    ServiceKind/String : Complete Main
    Default : Да
    Forced : Нет

    Аудио #2
    Идентификатор : 3
    Формат : AC-3
    Формат/Информация : Audio Coding 3
    Идентификатор кодека : A_AC3
    Продолжительность : 48 м. 21 с.
    Вид битрейта : Постоянный
    Битрейт : 384 Кбит/сек
    Каналы : 6 каналов
    Расположение каналов : Front: L C R, Side: L R, LFE
    Частота : 48,0 КГц
    Частота кадров : 31,250 кадров/сек (1536 SPF)
    Битовая глубина : 16 бит
    Метод сжатия : С потерями
    Задержка видео : 16 мс.
    Размер потока : 133 Мбайт (7%)
    Язык : German
    ServiceKind/String : Complete Main
    Default : Нет
    Forced : Нет





    Скриншоты:
    скриншот   скриншот   скриншот   скриншот   скриншот   скриншот   скриншот  
    скриншот  


    Раздача ведётся путём добавления новых серий. Добавлена 8-10 серия (04.12.2017).Просьба перекачать торрент файл.

    pb.wtf



  • Скачать Тьма через торрент http://pic1.kartinco.top/images/11/kgubf.jpg Скачать фильм Тьма через торрент бесплантно в хорошем качестве qw.png Семейная драма со сверхъестественным уклоном разворачивается в тихом городке Винден. Но приходит время расплатиться всем за грехи. ... 10 10 9
    Info! Золотая раздача, скачанное не засчитывается.
    Торрент: Зарегистрирован [2017-12-03 23:52] · скачан: 273 раз
    Статус: √ проверено
    Размер: 13.89 GB
    Как cкачать? Как скачать Тьма через торрент | qTorrent

    % Раздел Тема Автор DL S | L
    Зарубежные сериалы [ 18.02 GB ] Тьма / Dark / Сезон: 2 / Серии: 1-8 из 8 [2019 WEBRip 1080p] [MVO] killermax2013 Скачать
    1 | 0
    Зарубежные сериалы [ 31.14 GB ] Тьма / Dark / Сезон: 3 / Серии: 1-8 из 8 [2020 WEBRip 1080p] DVO [Gears Media] bober100 Скачать
    1 | 0
    Зарубежные сериалы [ 15.79 GB ] Тьма / Dark / Сезон 1 / Серии 1-10 из 10 [2017 WEBRip 720p] MVO [LostFilm] bober100 Скачать
    4 | 0
    Зарубежные сериалы [ 21.73 GB ] Тьма / Dark / Сезон: 3 / Серии: 1-8 из 8 [2020 WEBRip 1080p] MVO [Jaskier] bober100 Скачать
    1 | 0
    Зарубежные сериалы [ 24.88 GB ] Тьма / Dark / Сезон: 3 / Серии: 1-8 из 8 [2020 WEBRip 1080p] MVO [NewStudio] +DVO [Кубик в Кубе] bober100 Скачать
    3 | 0
    Зарубежные сериалы [ 22.63 GB ] Тьма / Dark / Сезон: 3 / Серии: 1-8 из 8 [2020 WEBRip 1080p] MVO [NewStudio] bober100 Скачать
    6 | 2
    Зарубежные сериалы [ 15.83 GB ] Тьма / Dark / Сезон: 3 / Серии: 1-8 из 8 [2020 WEB-DL 1080p] MVO [HDRezka Studio] bober100 Скачать
    1 | 0


    Последний раз редактировалось: GEKADOL (2017-12-03 23:52), всего редактировалось 9 раз(а)

    28-11-2019 20:33  

    Отключить всю рекламу на сайте

    02-12-2017 02:29 Тьма Скачать торрент  

    02-12-2017 06:44 Тьма Скачать торрент  

    Шта!?Оно теперь по немецки?pb.wtf



    13-12-2017 12:39 Тьма Скачать торрент  

    Когда 2 сезон?pb.wtf



    02-01-2019 18:07 Тьма Скачать торрент  

    Твин Пикс напоминает, классный сериал!pb.wtf



      Дорогой пользователь! Огромная просьба, поблагодарите релизера, оцените раздачу и оставьте свои комментарий, если Вы скачали Тьма через торрент бесплатно! Внесите свою лепту в развитие PiratBit!
      Комментировать посты могут только пользователи прошедшие не сложную регистрацию
      Показать сообщения:    

      Тьма через торрент
      Скачать бесплатно Тьма
      Тьма скачать торрент
      Тьма смотреть онлайн
      Cкачать фильм Тьма бесплатно
      Тьма скачать торрент в хорошем качестве
      Тьма смотреть онлайн бесплатно в хорошем качестве


      Вы не можете начинать темы
      Вы не можете отвечать на сообщения
      Вы не можете редактировать свои сообщения
      Вы не можете удалять свои сообщения
      Вы не можете голосовать в опросах
      Вы не можете прикреплять файлы к сообщениям
      Вы можете скачивать файлы