Доктор Стрэндж

Лицензия

Добыча

Дубляж

Уэнсдэй

1 сезон

Тор

Дубляж

В эфире

Дубляж

Там, где раки поют

MVO

Властелин колец

1 сезон

Deluxe

pack

Рекомендуем

30

Пиратка

ВАЖНО

ВАЖНО

Ghostwire

Пиратка

jed

RePack

nioh2

RePack

RDR2

RePack

NEED FOR SPEED™ PAYBACK

RePack

скачать торрент

Кинопоиск HD

Острые козырьки 6 сезон

6 сезон

FAR CRY 6

RePack

скачать торрент

Лицензия

скачать торрент

MVO

1

1 сезон

скачать торрент

1 сезон

скачать торрент

Лицензия

  

Заклятье. Наши дни / The Crucifixion (Ксавье Жанс) [2017, Ужасы, триллер, детектив, BDRip 1080p] Дубляж [iTunes]

Заклятье. Наши дни через торрент pb.wtf

Размер: 6.77 GB | Добавлен: 5 лет назад | Торрент скачан:738 раз
Смотреть онлайн | Скачать   

02-12-2017 08:20 Заклятье. Наши дни Скачать торрент  

Заклятье. Наши дни / The CrucifixionГод выпуска: 2017
Страна: Великобритания, Румыния
Жанр: Ужасы, триллер, детектив
Продолжительность: 01:29:54
Перевод: Дубляж | iTunes
Субтитры: английские

Режиссер: Ксавье Жанс


rating

В ролях:

Софи Куксон, Корнелиу Улич, Бриттани Эшворт, Мэтью Заяц, Диана Владу, Раду Банзару, Хавьер Ботет, Иван Гонсалес

Описание:

В 2005 году пять священнослужителей обвиняются в убийстве монахини, над которой проводился обряд экзорцизма. Журналистка Николь начинает свое независимое расследование. Но по мере погружения в цепь необъяснимых событий она все больше становится их неотъемлемой частью и все больше склоняется к тому, что служители культа проиграли сражение с демонической сущностью, а экзорцизм стал орудием демона в его страшном ритуале.

Качество: BDRip 1080p
Формат: MKV
Видео кодек: H.264
Аудио кодек: AC3/DTS

Видео: 8668 Кбит/с, 1920x804, 23,976 fps
Аудио#1: Русский AC3, 6ch, 384 kbps, 48Hz - Дубляж
Аудио#2: Английский DTS, 6 ch, 1510 Кбит/с - Оригинал
скриншот   скриншот   скриншот   скриншот   скриншот   скриншот  

Общее
Уникальный идентификатор : 175817208368810214295808636017516598963 (0x844529A25B23BC99A895FB3558A5D6B3)
Полное имя : D:\Downloads\The.Crucifixion.2017.BluRay.1080p.DTS.x264-CHD.mkv
Формат : Matroska
Версия формата : Version 2
Размер файла : 6,77 Гбайт
Продолжительность : 1 ч. 29 м.
Общий поток : 10,8 Мбит/сек
Дата кодирования : UTC 2017-12-02 02:41:25
Программа кодирования : mkvmerge v2.9.9 ('Tutu') built on Nov 25 2009 21:13:32
Библиотека кодирования : libebml v0.7.9 + libmatroska v0.8.1

Видео
Идентификатор : 1
Формат : AVC
Формат/Информация : Advanced Video Codec
Профиль формата : [email protected]
Параметр CABAC формата : Да
Параметр RefFrames формата : 4 кадра
Идентификатор кодека : V_MPEG4/ISO/AVC
Продолжительность : 1 ч. 29 м.
Битрейт : 8668 Кбит/сек
Ширина : 1920 пикселей
Высота : 804 пикселя
Соотношение сторон : 2,40:1
Режим частоты кадров : Постоянный
Частота кадров : 23,976 (24000/1001) кадра/сек
Цветовое пространство : YUV
Субдискретизация насыщенности : 4:2:0
Битовая глубина : 8 бит
Тип развёртки : Прогрессивная
Бит/(Пиксели*Кадры) : 0.234
Размер потока : 5,44 Гбайт (80%)
Библиотека кодирования : x264 core 149 r2771+45 509cceb 7mod [[email protected] X86_64]
Настройки программы : cabac=1 / ref=4 / deblock=1:-3:-3 / analyse=0x3:0x113 / me=umh / subme=10 / psy=1 / fade_compensate=0.00 / psy_rd=0.90:0.10 / mixed_ref=1 / me_range=48 / chroma_me=1 / trellis=2 / 8x8dct=1 / cqm=0 / deadzone=21,11 / fast_pskip=0 / chroma_qp_offset=-2 / threads=12 / lookahead_threads=2 / sliced_threads=0 / nr=0 / decimate=1 / interlaced=0 / bluray_compat=0 / constrained_intra=0 / fgo=0 / bframes=8 / b_pyramid=2 / b_adapt=2 / b_bias=0 / direct=3 / weightb=1 / open_gop=0 / weightp=2 / keyint=250 / keyint_min=23 / scenecut=40 / intra_refresh=0 / rc_lookahead=40 / rc=crf / mbtree=0 / crf=20.0000 / qcomp=0.70 / qpmin=0:0:0 / qpmax=69:69:69 / qpstep=4 / vbv_maxrate=35000 / vbv_bufsize=35000 / crf_max=0.0 / nal_hrd=none / filler=0 / ip_ratio=1.40 / pb_ratio=1.30 / aq=3:1.00 / aq-sensitivity=10.00 / aq-factor=1.00:1.00:1.00 / aq2=0 / aq3=2:[0.50:0.50]:[0.50:0.50]:[0.50:0.50]:[0.50:0.50] / aq3-sensitivity=10.00 / aq3-factor=[1.00:1.00]:[1.00:1.00]:[1.00:1.00] / aq3-boundary=192:64:24
Язык : English
Default : Нет
Forced : Нет
Цветовой диапазон : Limited
Коэффициенты матрицы : BT.709
Statistics Tags Issue : mkvmerge v10.0.0 ('To Drown In You') 64bit 2017-11-28 00:24:55 / mkvmerge v2.9.9 ('Tutu') built on Nov 25 2009 21:13:32 2017-12-02 02:41:25
FromStats_BitRate : 8879240
FromStats_Duration : 01:29:54.431000000
FromStats_FrameCount : 129337
FromStats_StreamSize : 5987306041

Аудио #1
Идентификатор : 2
Формат : AC-3
Формат/Информация : Audio Coding 3
Параметр Endianness формата : Big
Идентификатор кодека : A_AC3
Продолжительность : 1 ч. 29 м.
Вид битрейта : Постоянный
Битрейт : 384 Кбит/сек
Каналы : 6 каналов
Расположение каналов : Front: L C R, Side: L R, LFE
Частота : 48,0 КГц
Частота кадров : 31,250 кадров/сек (1536 SPF)
Битовая глубина : 16 бит
Метод сжатия : С потерями
Размер потока : 247 Мбайт (4%)
Язык : Russian
ServiceKind/String : Complete Main
Default : Да
Forced : Нет

Аудио #2
Идентификатор : 3
Формат : DTS
Формат/Информация : Digital Theater Systems
Режим : 16
Параметр Endianness формата : Big
Идентификатор кодека : A_DTS
Продолжительность : 1 ч. 29 м.
Вид битрейта : Постоянный
Битрейт : 1509 Кбит/сек
Каналы : 6 каналов
Расположение каналов : Front: L C R, Side: L R, LFE
Частота : 48,0 КГц
Частота кадров : 93,750 кадра/сек (512 SPF)
Битовая глубина : 24 бит
Метод сжатия : С потерями
Задержка видео : 11 мс.
Размер потока : 970 Мбайт (14%)
Язык : English
Default : Нет
Forced : Нет
Statistics Tags Issue : mkvmerge v10.0.0 ('To Drown In You') 64bit 2017-11-28 00:24:55 / mkvmerge v2.9.9 ('Tutu') built on Nov 25 2009 21:13:32 2017-12-02 02:41:25
FromStats_BitRate : 1509000
FromStats_Duration : 01:29:54.432000000
FromStats_FrameCount : 505728
FromStats_StreamSize : 1017524736

Текст
Идентификатор : 4
Формат : UTF-8
Идентификатор кодека : S_TEXT/UTF8
Идентификатор кодека/Информация : UTF-8 Plain Text
Язык : English
Default : Нет
Forced : Нет




Скачать Заклятье. Наши дни через торрент http://s018.radikal.ru/i507/1712/05/694a9e81406c.jpg Скачать, смотреть онлайн Заклятье. Наши дни бесплантно в хорошем качестве Описание: В 2005 году пять священнослужителей обвиняются в убийстве монахини, над которой проводился обряд экзорцизма. Журналистка Николь ... 9.8 10 21
Info! Золотая раздача, скачанное не засчитывается.
Торрент: Зарегистрирован [2017-12-02 08:20] · скачан: 738 раз
Статус: √ проверено
Размер: 6.77 GB
Как cкачать? Как скачать Заклятье. Наши дни через торрент | UTorrent

% Раздел Тема Автор DL S | L
Фильмы 2017 [DVDrip, WEB-DLRip, HDrip] (DUB, MVO) [ 1.42 GB ] Заклятье. Наши дни / The Crucifixion | Лицензия | BDRip Twi7ter Скачать
1 | 0
Фильмы 2017 [DVDrip, WEB-DLRip, HDrip] (DUB, MVO) [ 1.46 GB ] Заклятье. Наши дни / The Crucifixion | iTunes | HDRip bober100 Скачать
1 | 0
Фильмы 2017 [DVDrip, WEB-DLRip, HDrip] (DUB, MVO) [ 699 MB ] Заклятье. Наши дни / The Crucifixion | iTunes" | HDRip, Дубляж "iTunes" coc900 Скачать
1 | 0
Фильмы (Blu-ray, BD-Remux, HDDVD) [ 18.02 GB ] Заклятье. Наши дни / The Crucifixion | iTunes | BD Remux 1080p bober100 Скачать
1 | 0

28-11-2019 20:33  


Отключить вcю реклaмy на сайте, в т.ч. и в плеере онлайн просмотра!

02-12-2017 20:52 Заклятье. Наши дни Скачать торрент  

В оригинале называется "Распятие". К "Заклятию" отношения не имеет.



    Дорогой пользователь! Огромная просьба, поблагодарите релизера, оцените раздачу и оставьте свои комментарий, если Вы скачали Заклятье. Наши дни через торрент бесплатно!!
    Комментировать посты могут только пользователи прошедшие не сложную регистрацию
    Показать сообщения:    


    Заклятье. Наши дни через торрент
    Скачать бесплатно Заклятье. Наши дни
    Заклятье. Наши дни скачать торрент
    Заклятье. Наши дни смотреть онлайн
    Cкачать фильм Заклятье. Наши дни бесплатно
    Заклятье. Наши дни скачать торрент в хорошем качестве
    Заклятье. Наши дни смотреть онлайн бесплатно в хорошем качестве
    Вы не можете начинать темы
    Вы не можете отвечать на сообщения
    Вы не можете редактировать свои сообщения
    Вы не можете удалять свои сообщения
    Вы не можете голосовать в опросах
    Вы не можете прикреплять файлы к сообщениям
    Вы можете скачивать файлы
    Заклятье. Наши дни / The Crucifixion [2017, Ужасы, триллер, детектив, BDRip 1080p] Дубляж [iTunes] смотреть онлайн, скачать торрент picoco.icu