новый адрес пиратбит piratbit
Мега распродажа FORZA HORIZON 4 ULTIMATE+ВСЕ DLC+ОНЛАЙН всего за 499р. 349 руб. (супер цена). Внимание количество ограничено!!!

iTunes

1+1

iTunes

мы

iTunes

1

iTunes

Чернобыль

iTunes

Ральф против интернета

Лицензия

ПШазам

Лицензия

Игра престолов

Лицензия

30
pack

ВАЖНО

!!Акция!!

Alien_RageХит недели

RePack

Resident Evil 21

ИГРА 18+

pack

RePack

Metro:Exodus

!!Акция!!

Alien_Rage

RePack

fifa19

RePack

Assassins Creed: Odyssey

RePack

NEED FOR SPEED™ PAYBACK

3 сезон

9 сезон

Бесстыжие 9 сезон

Все сериалы

все сериалы на PB.wtf

RePack

FAR CRY 5
Ребята, катастрофически не хватает 1900р. для оплаты серверов за Октябрь (всвязи с блокировками трафик упал в 3 раза), 1-2р., выручайте.
  

Фома Гордеев (Марк Донской) [1959, СССР, драма, DVDRip от AVP Studio] pb.wtf

Фома Гордеев через торрент pb.wtf

Размер: 1.09 GB | Добавлен: 1 год 11 мес. назад | Торрент скачан:26 раз
Скачать  

02-12-2017 09:19 Фома Гордеев Скачать торрент  

Фома Гордеев
Страна: СССР
Производство: Киностудия им. М. Горького

Жанр: драма
Год выпуска: 1959
Продолжительность: 01:33:49

Перевод: Не требуется
Cубтитры: нет
Оригинальная аудиодорожка: русский

Режиссер: Марк Донской

В ролях:
Георгий Епифанцев, Сергей Лукьянов, Павел Тарасов, Алла Лабецкая, Марианна Стриженова, Мария Милкова, Игорь Сретенский, Геннадий Сергеев, А. Глущенко, Исай Гуров, Борис Ситко, Борис Андреев (VI), Саша Балицкий, Ира Никифорова, Люся Никифорова, Владик Лебедев, Саша Кукаренко...
Об актёрах подробней

Описание:
По мотивам одноименного романа М. Горького.
Игнат Гордеев (Сергей Лукьянов), богатейший волжский купец, мечтает вырастить из сына помощника в своём деле. Но Фома (Георгий Епифанцев) не пошёл в отца. С детских лет не давала ему покоя грязь, несправедливость окружающей жизни.

Источник: DVD5 R5
Качество видео: DVDRip
Формат видео: AVI

Видео: 704x528 (4:3), 25 fps, XviD ~ 1459 kbps avg, 0.157 bit/pixel
Аудио: 48 kHz, Dolby Digital AC3 2.0, 192 kbps

Раздача от:
Общее
Полное имя : Foma.Gordeev.1959.DVDRip_[New-team]_by_AVP_Studio.avi
Формат : AVI
Формат/Информация : Audio Video Interleave
Размер файла : 1,09 Гбайт
Продолжительность : 1 ч. 33 м.
Общий поток : 1661 Кбит/сек
Программа кодирования : VirtualDubMod 1.5.10.3 | www.virtualdub-fr.org || (build 2550/release)
Библиотека кодирования : VirtualDubMod build 2550/release

Видео
Идентификатор : 0
Формат : MPEG-4 Visual
Профиль формата : Advanced Simple@L5
Настройки формата : BVOP1 / Custom Matrix
Параметр BVOP формата : 1
Параметр QPel формата : Нет
Параметр GMC формата : Без точки перехода
Параметр матрицы формата : Выборочная
Идентификатор кодека : XVID
Идентификатор кодека/Подсказка : XviD
Продолжительность : 1 ч. 33 м.
Битрейт : 1459 Кбит/сек
Ширина : 704 пикселя
Высота : 528 пикселей
Соотношение сторон : 4:3
Частота кадров : 25,000 кадров/сек
Цветовое пространство : YUV
Субдискретизация насыщенности : 4:2:0
Битовая глубина : 8 бит
Тип развёртки : Прогрессивная
Метод сжатия : С потерями
Бит/(Пиксели*Кадры) : 0.157
Размер потока : 979 Мбайт (88%)
Библиотека кодирования : XviD 73

Аудио
Идентификатор : 1
Формат : AC-3
Формат/Информация : Audio Coding 3
Идентификатор кодека : 2000
Продолжительность : 1 ч. 33 м.
Вид битрейта : Постоянный
Битрейт : 192 Кбит/сек
Каналы : 2 канала
Расположение каналов : Front: L R
Частота : 48,0 КГц
Частота кадров : 31,250 кадров/сек (1536 SPF)
Битовая глубина : 16 бит
Метод сжатия : С потерями
Размер потока : 129 Мбайт (12%)
Выравнивание : Разделение по промежуткам
Продолжительность промежутка : 40 мс. (1,00 видеокадр)
Время предзагрузки промежутка : 500 мс
pb.wtf



Скачать Фома Гордеев через торрент http://s018.radikal.ru/i515/1712/b2/e6247e475dcc.png Скачать фильм Фома Гордеев через торрент бесплантно в хорошем качестве Описание:По мотивам одноименного романа М. Горького.Игнат Гордеев (Сергей Лукьянов), богатейший волжский купец, мечтает вырастить из сына ... 5 10 1
Торрент: Зарегистрирован [2017-12-02 09:19] · скачан: 26 раз
Статус: √ проверено
Размер: 1.09 GB
Как cкачать? Как скачать Фома Гордеев через торрент | qTorrent

% Раздел Тема Автор DL S | L
Кино СССР [ 1.09 GB ] Фома Гордеев [1959 СССР DVDRip-AVC от AVP Studio] AVP Studio Скачать
1 | 0
Кино СССР [ 745 MB ] Фома Гордеев [1959 СССР DVDRip от AVP Studio] AVP Studio Скачать
1 | 0


>> Регистрируемся здесь <<






Отзывы и комментарии о схеме читаем и пишем здесь: ---> Отзывы и комментарии о схеме

Новые благодарочки в телеграм довольных пользователей:
скриншот   скриншот   скриншот   скриншот   скриншот
    Дорогой пользователь! Огромная просьба, поблагодарите релизера, оцените раздачу и оставьте свои комментарий, если Вы скачали Фома Гордеев через торрент бесплатно! Внесите свою лепту в развитие PiratBit!
    Комментировать посты могут только пользователи прошедшие не сложную регистрацию
    Показать сообщения:    

    Фома Гордеев через торрент
    Скачать бесплатно Фома Гордеев
    Фома Гордеев скачать торрент
    Фома Гордеев смотреть онлайн
    Cкачать фильм Фома Гордеев бесплатно
    Фома Гордеев скачать торрент в хорошем качестве
    Фома Гордеев смотреть онлайн бесплатно в хорошем качестве


    Вы не можете начинать темы
    Вы не можете отвечать на сообщения
    Вы не можете редактировать свои сообщения
    Вы не можете удалять свои сообщения
    Вы не можете голосовать в опросах
    Вы не можете прикреплять файлы к сообщениям
    Вы можете скачивать файлы