Доктор Стрэндж

Лицензия

Добыча

MVO

Дом дракона

1 сезон

Тор

Лицензия

Мэверик

Лицензия

Там, где раки поют

MVO

Властелин колец

1 сезон

Ultimate

pack

Рекомендуем

30

Repack

ВАЖНО

ВАЖНО

Ghostwire

RePack

jed

RePack

nioh2

RePack

RDR2

RePack

NEED FOR SPEED™ PAYBACK

RePack

скачать торрент

Кинопоиск HD

Острые козырьки 6 сезон

6 сезон

FAR CRY 6

RePack

скачать торрент

Лицензия

скачать торрент

MVO

1

1 сезон

скачать торрент

1 сезон

скачать торрент

Лицензия

  

Трюфельный пёс королевы Джованны / Серии 1-4 из 4 (Олег Штром) [2017, Детектив, WEB-DL 1080p]

Трюфельный пёс королевы Джованны через торрент pb.wtf

Размер: 6.63 GB | Добавлен: 4 года 10 мес. назад | Торрент скачан:66 раз
Смотреть онлайн | Скачать   

03-12-2017 05:19 Трюфельный пёс королевы Джованны Скачать торрент  

Трюфельный пёс королевы ДжованныГод выпуска: 2017
Страна: Россия
Жанр: Детектив
Продолжительность: 4 х ~ 00:45:00
Перевод: Не требуется [Русский]
Субтитры: отсутствуют

Режиссер: Олег Штром



В ролях:

Елена Великанова, Дмитрий Бедерин, Любовь Германова, Валерий Сторожик, Максим Щёголев, Марина Кондратьева (II)

Описание:

По одноименному роману Анны Малышевой. В жизни Саши Корзухиной неожиданно появляется ее мать, которую она не видела уже много лет. Женщина пытается наладить отношения с дочерью, но внезапно исчезает. На следующий день в мастерскую приходит следователь: он ищет мать Александры, которую подозревает в убийстве и похищении уникальной серебряной статуэтки — трюфельного пса. Несмотря на сложные чувства к матери, бросившей ее еще подростком, Саша не может остаться в стороне и пытается выяснить, что произошло на самом деле. Собственное расследование выводит Корзухину на настоящих преступников, которые в погоне за наживой не остановятся ни перед чем.

Качество: WEB-DL 1080p
Формат: MKV
Видео кодек: H.264
Аудио кодек: AC3

Видео: MPEG-4 AVC, ~ 5122 Кбит/с, 1920x1080
Аудио: AC3, 2 ch, 192 Кбит/с
скриншот   скриншот   скриншот   скриншот  

Общее
Уникальный идентификатор : 232397628153368176253898523071132347344 (0xAED627B50F7DD67C92516B33912A2BD0)
Полное имя : D:\Trjufelnyj.pes.korolevy.Dzhovanny.2017.WEB-DL.(1080p).Getty\Trjufelnyj.pes.korolevy.Dzhovanny.e01.2017.WEB-DL.(1080p).Getty.mkv
Формат : Matroska
Версия формата : Version 4 / Version 2
Размер файла : 1,63 Гбайт
Продолжительность : 43 м. 57 с.
Общий поток : 5308 Кбит/сек
Название фильма : Trjufelnyj.pes.korolevy.Dzhovanny.e01.2017.WEB-DL.(1080p).Getty
Дата кодирования : UTC 2017-12-03 01:14:30
Программа кодирования : mkvmerge v7.8.0 ('River Man') 32bit built on Mar 27 2015 16:18:02
Библиотека кодирования : libebml v1.3.1 + libmatroska v1.4.2

Видео
Идентификатор : 1
Формат : AVC
Формат/Информация : Advanced Video Codec
Профиль формата : [email protected]
Параметр CABAC формата : Да
Параметр ReFrames формата : 4 кадра
Идентификатор кодека : V_MPEG4/ISO/AVC
Продолжительность : 43 м. 57 с.
Битрейт : 5114 Кбит/сек
Ширина : 1920 пикселей
Высота : 1080 пикселей
Соотношение сторон : 16:9
Режим частоты кадров : Постоянный
Частота кадров : 25,000 кадров/сек
Цветовое пространство : YUV
Субдискретизация насыщенности : 4:2:0
Битовая глубина : 8 бит
Тип развёртки : Прогрессивная
Бит/(Пиксели*Кадры) : 0.099
Размер потока : 1,57 Гбайт (96%)
Default : Да
Forced : Нет

Аудио
Идентификатор : 2
Формат : AC-3
Формат/Информация : Audio Coding 3
Расширение режима : CM (complete main)
Параметр Endianness формата : Big
Идентификатор кодека : A_AC3
Продолжительность : 43 м. 57 с.
Вид битрейта : Постоянный
Битрейт : 192 Кбит/сек
Каналы : 2 канала
Расположение каналов : Front: L R
Частота : 48,0 КГц
Частота кадров : 31,250 кадров/сек (1536 spf)
Метод сжатия : С потерями
Размер потока : 60,4 Мбайт (4%)
Default : Да
Forced : Нет




Скачать Трюфельный пёс королевы Джованны через торрент http://img12.lostpic.net/2017/12/03/63d1fe280970cbe137ee2900df5a8806.png Скачать, смотреть онлайн Трюфельный пёс королевы Джованны бесплантно в хорошем качестве Описание: По одноименному роману Анны Малышевой. В жизни Саши Корзухиной неожиданно появляется ее мать, которую она не видела уже много ... 10 10 2
Торрент: Зарегистрирован [2017-12-03 05:19] · скачан: 66 раз
Статус: √ проверено
Размер: 6.63 GB
Как cкачать? Как скачать Трюфельный пёс королевы Джованны через торрент | UTorrent

% Раздел Тема Автор DL S | L
Наши сериалы [ 2.05 GB ] Трюфельный пёс королевы Джованны / Серии: 1-4 из 4 | | SATRip-AVC aleksan55 Скачать
1 | 0

28-11-2019 20:33  


Отключить вcю реклaмy на сайте, в т.ч. и в плеере онлайн просмотра!

    Дорогой пользователь! Огромная просьба, поблагодарите релизера, оцените раздачу и оставьте свои комментарий, если Вы скачали Трюфельный пёс королевы Джованны через торрент бесплатно!!
    Комментировать посты могут только пользователи прошедшие не сложную регистрацию
    Показать сообщения:    


    Трюфельный пёс королевы Джованны через торрент
    Скачать бесплатно Трюфельный пёс королевы Джованны
    Трюфельный пёс королевы Джованны скачать торрент
    Трюфельный пёс королевы Джованны смотреть онлайн
    Cкачать фильм Трюфельный пёс королевы Джованны бесплатно
    Трюфельный пёс королевы Джованны скачать торрент в хорошем качестве
    Трюфельный пёс королевы Джованны смотреть онлайн бесплатно в хорошем качестве
    Вы не можете начинать темы
    Вы не можете отвечать на сообщения
    Вы не можете редактировать свои сообщения
    Вы не можете удалять свои сообщения
    Вы не можете голосовать в опросах
    Вы не можете прикреплять файлы к сообщениям
    Вы можете скачивать файлы