Доктор Стрэндж

Лицензия

Добыча

MVO

Дом дракона

1 сезон

Тор

Лицензия

Мэверик

Лицензия

Там, где раки поют

MVO

Властелин колец

1 сезон

Ultimate

pack

Рекомендуем

30

Repack

ВАЖНО

ВАЖНО

Ghostwire

RePack

jed

RePack

nioh2

RePack

RDR2

RePack

NEED FOR SPEED™ PAYBACK

RePack

скачать торрент

Кинопоиск HD

Острые козырьки 6 сезон

6 сезон

FAR CRY 6

RePack

скачать торрент

Лицензия

скачать торрент

MVO

1

1 сезон

скачать торрент

1 сезон

скачать торрент

Лицензия

  

Травка / Leaves of Grass (Тим Блэйк Нельсон) [2009, триллер, драма, комедия, криминал, BDRip 1080p by msltel] MVO

Травка через торрент pb.wtf

Размер: 10.53 GB | Добавлен: 4 года 10 мес. назад | Торрент скачан:74 раза
Смотреть онлайн | Скачать   

03-12-2017 07:34 Травка Скачать торрент  

Название: Травка
Оригинальное название: Leaves of Grass
Год выпуска: 2009
Страна: США
Жанр: триллер, драма, комедия, криминал
Продолжительность: 01:44:31
Перевод: профессиональный многоголосый

Режиссер: Тим Блэйк Нельсон
В ролях: Эдвард Нортон, Кери Расселл, Тим Блэйк Нельсон, Ричард Дрейфусс, Сьюзен Сарандон, Тай Буррелл, Мелани Лински, Люси ДеВито, Кент Джуд Бернард, Амелия Кэмпбелл, Рендал Ридер, Лео Фабиан, Прюитт Тейлор Винс, Тина Паркер, Ли Уилкоф, Джош Пэйс, Лиза Бенавидес, Дженна Поделл, Генри Макс Нельсон, Алиссия Дюймович, Кен Чизман, Стив Эрл, Наима Имани Летт, Мэгги Сифф, Тим Уэр, Тим Флетчер, Робин МакГи, Крис Фрейхофер

О фильме: В центре сюжета братья-близнецы, один из которых — успешный преподаватель философии, а другой — его полная противоположность, лодырь, выращивающий марихуану. Однажды преподаватель оказывается вынужден вернуться в родную Оклахому к брату, где оказывается втянут в опасную аферу против местного наркобарона...



Качество: BDRip 1080p
Формат: MKV
Видео: MPEG-4 AVC, 12.5 Mбит/с, 1920x1040, 23.976 кадр/с
Аудио 1: русский, AC3, 448 kbps, 6 ch [профессиональный многоголосый]
Аудио 2: английский, DTS, 1509 kbps, 6 ch, 48 kHz [оригинал]
Субтитры 1: русские
Субтитры 2: английские
Неименованные главы/чаптеры.
Общее
Уникальный идентификатор : 221305818509857240881904238652583246056 (0xA67DF3452034E1FE9D1528DB058AF8E8)
Полное имя : D:\Video\Травка.2009.BDRip.1080p by msltel.mkv
Формат : Matroska
Версия формата : Version 4 / Version 2
Размер файла : 10,5 Гбайт
Продолжительность : 1 ч. 44 м.
Общий поток : 14,4 Мбит/сек
Название фильма : Rip by msltel
Дата кодирования : UTC 2017-12-03 03:03:47
Программа кодирования : mkvmerge v8.2.0 ('World of Adventure') 64bit
Библиотека кодирования : libebml v1.3.1 + libmatroska v1.4.2

Видео
Идентификатор : 1
Формат : AVC
Формат/Информация : Advanced Video Codec
Профиль формата : [email protected]
Настройки формата : CABAC / 4 Ref Frames
Параметр CABAC формата : Да
Параметр RefFrames формата : 4 кадра
Идентификатор кодека : V_MPEG4/ISO/AVC
Продолжительность : 1 ч. 44 м.
Битрейт : 12,5 Мбит/сек
Ширина : 1920 пикселей
Высота : 1040 пикселей
Соотношение сторон : 1,85:1
Режим частоты кадров : Постоянный
Частота кадров : 23,976 (24000/1001) кадра/сек
Цветовое пространство : YUV
Субдискретизация насыщенности : 4:2:0
Битовая глубина : 8 бит
Тип развёртки : Прогрессивная
Бит/(Пиксели*Кадры) : 0.260
Размер потока : 9,10 Гбайт (86%)
Библиотека кодирования : x264 core 146 r2538 121396c
Настройки программы : cabac=1 / ref=4 / deblock=1:-3:-2 / analyse=0x3:0x113 / me=umh / subme=11 / psy=1 / psy_rd=1.00:0.15 / mixed_ref=1 / me_range=32 / chroma_me=1 / trellis=2 / 8x8dct=1 / cqm=0 / deadzone=21,11 / fast_pskip=0 / chroma_qp_offset=-3 / threads=6 / lookahead_threads=1 / sliced_threads=0 / nr=0 / decimate=1 / interlaced=0 / bluray_compat=0 / constrained_intra=0 / bframes=7 / b_pyramid=2 / b_adapt=2 / b_bias=0 / direct=1 / weightb=1 / open_gop=0 / weightp=2 / keyint=230 / keyint_min=23 / scenecut=40 / intra_refresh=0 / rc_lookahead=40 / rc=crf / mbtree=0 / crf=17.0 / qcomp=0.60 / qpmin=0 / qpmax=69 / qpstep=4 / vbv_maxrate=62500 / vbv_bufsize=78125 / crf_max=0.0 / nal_hrd=none / filler=0 / ip_ratio=1.40 / pb_ratio=1.30 / aq=1:1.00
Язык : English
Default : Да
Forced : Нет

Аудио #1
Идентификатор : 2
Формат : AC-3
Формат/Информация : Audio Coding 3
Идентификатор кодека : A_AC3
Продолжительность : 1 ч. 44 м.
Вид битрейта : Постоянный
Битрейт : 448 Кбит/сек
Каналы : 6 каналов
Расположение каналов : Front: L C R, Side: L R, LFE
Частота : 48,0 КГц
Частота кадров : 31,250 кадров/сек (1536 SPF)
Битовая глубина : 16 бит
Метод сжатия : С потерями
Размер потока : 335 Мбайт (3%)
Заголовок : MVO
Язык : Russian
ServiceKind/String : Complete Main
Default : Да
Forced : Нет

Аудио #2
Идентификатор : 3
Формат : DTS
Формат/Информация : Digital Theater Systems
Идентификатор кодека : A_DTS
Продолжительность : 1 ч. 44 м.
Вид битрейта : Постоянный
Битрейт : 1509 Кбит/сек
Каналы : 6 каналов
Расположение каналов : Front: L C R, Side: L R, LFE
Частота : 48,0 КГц
Частота кадров : 93,750 кадра/сек (512 SPF)
Битовая глубина : 24 бит
Метод сжатия : С потерями
Размер потока : 1,10 Гбайт (10%)
Заголовок : original
Язык : English
Default : Нет
Forced : Нет

Текст #1
Идентификатор : 4
Формат : UTF-8
Идентификатор кодека : S_TEXT/UTF8
Идентификатор кодека/Информация : UTF-8 Plain Text
Продолжительность : 1 ч. 36 м.
Битрейт : 104 бит/сек
ElementCount : 1538
Размер потока : 73,9 Кбайт (0%)
Заголовок : русские
Язык : Russian
Default : Нет
Forced : Нет

Текст #2
Идентификатор : 5
Формат : UTF-8
Идентификатор кодека : S_TEXT/UTF8
Идентификатор кодека/Информация : UTF-8 Plain Text
Продолжительность : 1 ч. 36 м.
Битрейт : 76 бит/сек
ElementCount : 1665
Размер потока : 54,2 Кбайт (0%)
Заголовок : английские
Язык : English
Default : Нет
Forced : Нет

Меню
00:00:00.000 : :Chapter 01
00:07:35.872 : :Chapter 02
00:15:48.364 : :Chapter 03
00:24:00.230 : :Chapter 04
00:31:03.570 : :Chapter 05
00:41:08.716 : :Chapter 06
00:49:05.943 : :Chapter 07
00:58:07.901 : :Chapter 08
01:08:12.296 : :Chapter 09
01:19:06.073 : :Chapter 10
01:29:11.345 : :Chapter 11
01:37:18.249 : :Chapter 12



Скачать Травка через торрент http://s019.radikal.ru/i644/1711/8f/0d9220a01e0a.jpg Скачать, смотреть онлайн Травка бесплантно в хорошем качестве О фильме: В центре сюжета братья-близнецы, один из которых — успешный преподаватель философии, а другой — его полная противоположность, ... 9.7 10 3
Info! Золотая раздача, скачанное не засчитывается.
Торрент: Зарегистрирован [2017-12-03 07:34] · скачан: 74 раз
Статус: √ проверено
Размер: 10.53 GB
Как cкачать? Как скачать Травка через торрент | UTorrent

% Раздел Тема Автор DL S | L
Фильмы [HD 720p, 1080p] (Хороший звук DUB, MVO) [ 4.04 GB ] Травка / Leaves of Grass | MVO | 720p by msltel msltel Скачать
1 | 0

28-11-2019 20:33  


Отключить вcю реклaмy на сайте, в т.ч. и в плеере онлайн просмотра!

    Дорогой пользователь! Огромная просьба, поблагодарите релизера, оцените раздачу и оставьте свои комментарий, если Вы скачали Травка через торрент бесплатно!!
    Комментировать посты могут только пользователи прошедшие не сложную регистрацию
    Показать сообщения:    


    Травка через торрент
    Скачать бесплатно Травка
    Травка скачать торрент
    Травка смотреть онлайн
    Cкачать фильм Травка бесплатно
    Травка скачать торрент в хорошем качестве
    Травка смотреть онлайн бесплатно в хорошем качестве
    Вы не можете начинать темы
    Вы не можете отвечать на сообщения
    Вы не можете редактировать свои сообщения
    Вы не можете удалять свои сообщения
    Вы не можете голосовать в опросах
    Вы не можете прикреплять файлы к сообщениям
    Вы можете скачивать файлы