Ссылка на приватное зеркало нашего сайта всего за 1$. Внимание количество ограничено!!!

2 сезон

iTunes

1 сезон

1

2 сезон

2 сезон

iTunes

1 сезон

RePack

30

Ultimate

ВАЖНО

ИГРА 18+

pack

RePack

MK11
pack

Забери бонус

RePack

jed

!!Акция!!

Alien_Rage

RePack

fifa19

RePack

Assassins Creed: Odyssey

RePack

NEED FOR SPEED™ PAYBACK

4 сезон

9 сезон

Бесстыжие 9 сезон

Все сериалы

все сериалы на PB.wtf

RePack

FAR CRY 5
  

Заклятье. Наши дни / The Crucifixion (Ксавье Жанс) [2017, Ужасы, триллер, детектив, BD Remux 1080p] DUB [iTunes] pb.wtf

Заклятье. Наши дни через торрент pb.wtf

Размер: 18.02 GB | Добавлен: 2 года 11 мес. назад | Торрент скачан:78 раз
Скачать  

03-12-2017 09:34 Заклятье. Наши дни Скачать торрент  

Заклятье. Наши дни / The CrucifixionГод выпуска: 2017
Страна: Великобритания, Румыния
Жанр: Ужасы, триллер, детектив
Продолжительность: 01:29:54
Перевод: Дубляж | iTunes
Субтитры: английские

Режиссер: Ксавье Жанс


rating

В ролях:

Софи Куксон, Корнелиу Улич, Бриттани Эшворт, Мэтью Заяц, Диана Владу, Раду Банзару, Хавьер Ботет, Иван Гонсалес

Описание:

В 2005 году пять священнослужителей обвиняются в убийстве монахини, над которой проводился обряд экзорцизма. Журналистка Николь начинает свое независимое расследование. Но по мере погружения в цепь необъяснимых событий она все больше становится их неотъемлемой частью и все больше склоняется к тому, что служители культа проиграли сражение с демонической сущностью, а экзорцизм стал орудием демона в его страшном ритуале.

Качество: BD Remux 1080p
Формат: MKV
Видео кодек: H.264
Аудио кодек: AC3/DTS-HD

Видео: MPEG-4 AVC, 1920x1080, 24.9 Mbit/s, 23.976 fps
Аудио#1: 48 kHz, AC3, 5.1, 384 Kbps | Дублированный | iTunes | RUS |
Аудио#2: 48 kHz, DTS-HD MA, 5.1, 3399 Kbps | Оригинал | ENG |

Релиз от:
скриншот   скриншот   скриншот   скриншот   скриншот  

General
Unique ID : 217313076506413716961711477803449787759 (0xA37CF9E3FCC644079B7664313F17256F)
Complete name : G:VideoSSDThe.Crucifixion.2017.BDREMUX.1080p.ExKinoRay.mkv
Format : Matroska
Format version : Version 4 / Version 2
File size : 18.0 GiB
Duration : 1 h 29 min
Overall bit rate mode : Variable
Overall bit rate : 28.7 Mb/s
Movie name : The Crucifixion 2017 from ExKinoRay
Encoded date : UTC 2017-12-03 08:51:12
Writing application : mkvmerge v18.0.0 ('Apricity') 64-bit
Writing library : libebml v1.3.5 + libmatroska v1.4.8

Video
ID : 1
Format : AVC
Format/Info : Advanced Video Codec
Format profile : High@L4.1
Format settings : CABAC / 4 Ref Frames
Format settings, CABAC : Yes
Format settings, RefFrames : 4 frames
Codec ID : V_MPEG4/ISO/AVC
Duration : 1 h 29 min
Bit rate mode : Variable
Bit rate : 24.9 Mb/s
Maximum bit rate : 37.0 Mb/s
Width : 1 920 pixels
Height : 1 080 pixels
Display aspect ratio : 16:9
Frame rate mode : Constant
Frame rate : 23.976 (24000/1001) FPS
Color space : YUV
Chroma subsampling : 4:2:0
Bit depth : 8 bits
Scan type : Progressive
Bits/(Pixel*Frame) : 0.501
Stream size : 15.6 GiB (87%)
Language : English
Default : Yes
Forced : No

Audio #1
ID : 2
Format : AC-3
Format/Info : Audio Coding 3
Format settings, Endianness : Big
Codec ID : A_AC3
Duration : 1 h 29 min
Bit rate mode : Constant
Bit rate : 384 kb/s
Channel(s) : 6 channels
Channel positions : Front: L C R, Side: L R, LFE
Sampling rate : 48.0 kHz
Frame rate : 31.250 FPS (1536 SPF)
Bit depth : 16 bits
Compression mode : Lossy
Stream size : 247 MiB (1%)
Title : iTunes
Language : Russian
Service kind : Complete Main
Default : Yes
Forced : No

Audio #2
ID : 3
Format : DTS
Format/Info : Digital Theater Systems
Format profile : MA / Core
Mode : 16
Format settings, Endianness : Big
Codec ID : A_DTS
Duration : 1 h 29 min
Bit rate mode : Variable / Constant
Bit rate : 3 399 kb/s / 1 509 kb/s
Channel(s) : 6 channels
Channel positions : Front: L C R, Side: L R, LFE
Sampling rate : 48.0 kHz
Frame rate : 93.750 FPS (512 SPF)
Bit depth : 24 bits
Compression mode : Lossless / Lossy
Stream size : 2.13 GiB (12%)
Title : Original
Language : English
Default : No
Forced : No

Text
ID : 4
Format : UTF-8
Codec ID : S_TEXT/UTF8
Codec ID/Info : UTF-8 Plain Text
Duration : 1 h 21 min
Bit rate : 44 b/s
Count of elements : 614
Stream size : 26.3 KiB (0%)
Title : Full
Language : English
Default : No
Forced : No

Menu
00:00:00.000 : en:Chapter 1
00:05:14.272 : en:Chapter 2
00:10:58.240 : en:Chapter 3
00:16:05.047 : en:Chapter 4
00:21:56.064 : en:Chapter 5
00:25:27.234 : en:Chapter 6
00:30:44.926 : en:Chapter 7
00:35:12.819 : en:Chapter 8
00:43:23.017 : en:Chapter 9
00:47:35.227 : en:Chapter 10
00:53:26.786 : en:Chapter 11
00:58:18.703 : en:Chapter 12
01:04:57.435 : en:Chapter 13
01:08:11.670 : en:Chapter 14
01:12:45.944 : en:Chapter 15
01:18:33.500 : en:Chapter 16

pb.wtf



Скачать Заклятье. Наши дни через торрент http://s41.radikal.ru/i093/1712/b6/5384fbb58b73.jpg Скачать фильм Заклятье. Наши дни через торрент бесплантно в хорошем качестве Описание: В 2005 году пять священнослужителей обвиняются в убийстве монахини, над которой проводился обряд экзорцизма. Журналистка Николь ... 10 10 4
Торрент: Зарегистрирован [2017-12-03 09:34] · скачан: 78 раз
Статус: √ проверено
Размер: 18.02 GB
Как cкачать? Как скачать Заклятье. Наши дни через торрент | qTorrent

% Раздел Тема Автор DL S | L
Фильмы 2017 [DVDrip, WEB-DLRip, HDrip] (DUB, MVO) [ 1.42 GB ] Заклятье. Наши дни / The Crucifixion [2017 BDRip] - Twi7ter Скачать
1 | 0
Фильмы 2017 [DVDrip, WEB-DLRip, HDrip] (DUB, MVO) [ 1.46 GB ] Заклятье. Наши дни / The Crucifixion [2017 HDRip] bober100 Скачать
1 | 0
Фильмы 2017 [DVDrip, WEB-DLRip, HDrip] (DUB, MVO) [ 699 MB ] Заклятье. Наши дни / The Crucifixion [2017 HDRip ""] coc900 Скачать
1 | 0
Фильмы [HD 720p, 1080p] (Хороший звук DUB, MVO) [ 6.77 GB ] Заклятье. Наши дни / The Crucifixion [2017 BDRip 1080p] bober100 Скачать
1 | 0

28-11-2019 20:33  

Отключить всю рекламу на сайте

    Дорогой пользователь! Огромная просьба, поблагодарите релизера, оцените раздачу и оставьте свои комментарий, если Вы скачали Заклятье. Наши дни через торрент бесплатно! Внесите свою лепту в развитие PiratBit!
    Комментировать посты могут только пользователи прошедшие не сложную регистрацию
    Показать сообщения:    

    Заклятье. Наши дни через торрент
    Скачать бесплатно Заклятье. Наши дни
    Заклятье. Наши дни скачать торрент
    Заклятье. Наши дни смотреть онлайн
    Cкачать фильм Заклятье. Наши дни бесплатно
    Заклятье. Наши дни скачать торрент в хорошем качестве
    Заклятье. Наши дни смотреть онлайн бесплатно в хорошем качестве


    Вы не можете начинать темы
    Вы не можете отвечать на сообщения
    Вы не можете редактировать свои сообщения
    Вы не можете удалять свои сообщения
    Вы не можете голосовать в опросах
    Вы не можете прикреплять файлы к сообщениям
    Вы можете скачивать файлы