2 сезон

iTunes

MVO

1

2 сезон

iTunes

1 сезон

1 сезон

RePack

30

Новинка

ВАЖНО

ИГРА 18+

pack

RePack

MK11
pack

Легкие деньги

RePack

jed

RePack

fifa19

RePack

RDR2

RePack

NEED FOR SPEED™ PAYBACK

4 сезон

9 сезон

Бесстыжие 9 сезон

Все сериалы

все сериалы на PB.wtf

RePack

FAR CRY 5

Anonymous, добрый вечер, мы не успеваем собрать деньги на оплату серверов за декабрь и январь, помогите нам пожалуйста в это трудное время. В качестве благодарности мы отключим Вам всю рекламу на сайте (укажите свой ник в строку Ваше имя)!

×
  
Magnet ссылка

Реальный Рокки / The Bleeder (Филипп Фалардо) [2016, Драма, биография, спорт, HDRip, КПК] MVO [Лицензия / iTunes] pb.wtf

Реальный Рокки через торрент pb.wtf

Размер: 377 MB | Добавлен: 3 года 1 мес. назад | Торрент скачан:18 раз
Скачать  

03-12-2017 09:48 Реальный Рокки Скачать торрент  

Реальный Рокки / The BleederИнформация о фильме:

Год выпуска: 2016
Страна: США
Жанр: Драма, биография, спорт
Продолжительность: 01:38:24
Перевод: Профессиональный многоголосый [Лицензия / iTunes]
Субтитры: отсутствуют

Режиссер: Филипп Фалардо

rating

В ролях:

Элизабет Мосс, Наоми Уоттс, Лив Шрайбер, Рон Перлман, Майкл Рапапорт, Сэди Синк, Морган Спектор, Пуч Холл, Джим Гэффиган, Джейсон Джонс

Описание:

История о боксере-тяжеловесе Чаке Уэпнере, жизнь которого резко изменилась после победы над легендарным Мохаммедом Али. Какой-то Сталлоне написал сценарий на основе его жизни, и Чак вошел в историю как прототип Рокки Бальбоа. Он любил жизнь, азартные игры и женщин, и ни за что не хотел отказываться от славы.

Технические данные файла:

Качество: HDRip (Исх. BDRip 720p)
Формат: MP4
Видео кодек: AVC
Аудио кодек: AAC-LC

Видео: 640x344 (1.85:1), 23.976 fps, MPEG-4 AVC ~ 400 kbps (0.076 bit/pixel)
Аудио: 48.0 KHz, ACC-LC, 2 ch, 128 kbps
скриншот   скриншот   скриншот   скриншот  

Общее
Полное имя : D:\Chuck.2016.HDRip.[Kaztorrents].mp4
Формат : MPEG-4
Профиль формата : Base Media
Идентификатор кодека : isom (isom/avc1)
Размер файла : 377 Мбайт
Продолжительность : 1 ч. 38 м.
Режим общего битрейта : Переменный
Общий поток : 535 Кбит/сек
Название фильма : Chuck 2016 P 720p BDRip Rustorrents
Тип содержимого : Short Film
Дата кодирования : UTC 2017-12-03 08:40:07
Дата пометки : UTC 2017-12-03 08:40:34
Программа кодирования : MkvToMp4 [www.mkvtomp4.ru] version: 0.224 (x64)

Видео
Идентификатор : 1
Формат : AVC
Формат/Информация : Advanced Video Codec
Профиль формата : High@L4.1
Параметр CABAC формата : Да
Параметр ReFrames формата : 10 кадров
Идентификатор кодека : avc1
Идентификатор кодека/Информация : Advanced Video Coding
Продолжительность : 1 ч. 38 м.
Битрейт : 400 Кбит/сек
Максимальный битрейт : 1218 Кбит/сек
Ширина : 640 пикселей
Высота : 344 пикселя
Соотношение сторон : 1,85:1
Режим частоты кадров : Постоянный
Частота кадров : 23,976 (24000/1001) кадра/сек
Цветовое пространство : YUV
Субдискретизация насыщенности : 4:2:0
Битовая глубина : 8 бит
Тип развёртки : Прогрессивная
Бит/(Пиксели*Кадры) : 0.076
Размер потока : 281 Мбайт (75%)
Заголовок : 264_GPAC0.5.2_DEV_rev248_g39d5978_master
Библиотека кодирования : x264 core 146 r2538 121396c
Настройки программы : cabac=1 / ref=10 / deblock=1:-3:-3 / analyse=0x3:0x113 / me=umh / subme=11 / psy=1 / psy_rd=1.00:0.00 / mixed_ref=1 / me_range=32 / chroma_me=1 / trellis=2 / 8x8dct=1 / cqm=0 / deadzone=21,11 / fast_pskip=0 / chroma_qp_offset=-2 / threads=6 / lookahead_threads=1 / sliced_threads=0 / nr=0 / decimate=1 / interlaced=0 / bluray_compat=0 / constrained_intra=0 / bframes=10 / b_pyramid=2 / b_adapt=2 / b_bias=0 / direct=3 / weightb=1 / open_gop=0 / weightp=2 / keyint=240 / keyint_min=23 / scenecut=40 / intra_refresh=0 / rc_lookahead=40 / rc=2pass / mbtree=0 / bitrate=400 / ratetol=1.0 / qcomp=0.60 / qpmin=0 / qpmax=69 / qpstep=4 / cplxblur=20.0 / qblur=0.5 / vbv_maxrate=14000 / vbv_bufsize=14000 / nal_hrd=none / filler=0 / ip_ratio=1.40 / pb_ratio=1.30 / aq=1:1.00
Язык : English
Дата кодирования : UTC 2017-12-03 08:40:07
Дата пометки : UTC 2017-12-03 08:40:20

Аудио
Идентификатор : 2
Формат : AAC
Формат/Информация : Advanced Audio Codec
Профиль формата : LC
Идентификатор кодека : 40
Продолжительность : 1 ч. 38 м.
Вид битрейта : Переменный
Битрейт : 128 Кбит/сек
Максимальный битрейт : 135 Кбит/сек
Каналы : 2 канала
Расположение каналов : Front: L R
Частота : 48,0 КГц
Частота кадров : 46,875 кадров/сек (1024 spf)
Метод сжатия : С потерями
Размер потока : 90,0 Мбайт (24%)
Язык : Russian
Дата кодирования : UTC 2017-12-03 08:40:16
Дата пометки : UTC 2017-12-03 08:40:20
pb.wtf



Скачать Реальный Рокки через торрент http://s019.radikal.ru/i626/1711/87/ef3ac88f91d4.png Скачать фильм Реальный Рокки через торрент бесплантно в хорошем качестве Описание: История о боксере-тяжеловесе Чаке Уэпнере, жизнь которого резко изменилась после победы над легендарным Мохаммедом Али. Какой-то ... 10 10 2
Торрент: Зарегистрирован [2017-12-03 09:48] · скачан: 18 раз
Статус: √ проверено
Размер: 377 MB
Как cкачать? Как скачать Реальный Рокки через торрент | UTorrent

% Раздел Тема Автор DL S | L
Фильмы (Blu-ray, BD-Remux, HDDVD) [ 27.03 GB ] Реальный Рокки / The Bleeder [2016 биография BD Remux 1080p] AVO [Карповский] +MVO bober100 Скачать
1 | 0
Фильмы 2016 [DVDrip, WEB-DLRip, HDrip] (DUB, MVO) [ 1.42 GB ] Реальный Рокки / The Bleeder [2016 биография BDRip] MVO Twi7ter Скачать
1 | 0
Фильмы 2016 [DVDrip, WEB-DLRip, HDrip] (DUB, MVO) [ 1.42 GB ] Реальный Рокки / The Bleeder [2016 биография BDRip] MVO bober100 Скачать
1 | 0

28-11-2019 20:33  

Отключить всю рекламу на сайте

    Дорогой пользователь! Огромная просьба, поблагодарите релизера, оцените раздачу и оставьте свои комментарий, если Вы скачали Реальный Рокки через торрент бесплатно! Внесите свою лепту в развитие PiratBit!
    Комментировать посты могут только пользователи прошедшие не сложную регистрацию
    Показать сообщения:    

    Реальный Рокки через торрент
    Скачать бесплатно Реальный Рокки
    Реальный Рокки скачать торрент
    Реальный Рокки смотреть онлайн
    Cкачать фильм Реальный Рокки бесплатно
    Реальный Рокки скачать торрент в хорошем качестве
    Реальный Рокки смотреть онлайн бесплатно в хорошем качестве


    Вы не можете начинать темы
    Вы не можете отвечать на сообщения
    Вы не можете редактировать свои сообщения
    Вы не можете удалять свои сообщения
    Вы не можете голосовать в опросах
    Вы не можете прикреплять файлы к сообщениям
    Вы можете скачивать файлы