новый адрес
Мега распродажа FORZA HORIZON 4 ULTIMATE+ВСЕ DLC+ОНЛАЙН всего за 499р. 349 руб. (супер цена). Внимание количество ограничено!!!

iTunes

1+1

iTunes

мы

iTunes

1

iTunes

Чернобыль

iTunes

Ральф против интернета

Лицензия

ПШазам

Лицензия

Оно 2

Лицензия

30
pack

ВАЖНО

!!Акция!!

Alien_RageХит недели

RePack

Resident Evil 21

ИГРА 18+

pack

RePack

jed

!!Акция!!

Alien_Rage

RePack

fifa19

RePack

Assassins Creed: Odyssey

RePack

NEED FOR SPEED™ PAYBACK

3 сезон

9 сезон

Бесстыжие 9 сезон

Все сериалы

все сериалы на PB.wtf

RePack

FAR CRY 5
Ребята, катастрофически не хватает 1900р. для оплаты серверов за Октябрь (всвязи с блокировками трафик упал в 3 раза), 1-2р., выручайте.
  

Майские звезды (Станислав Ростоцкий) [1959, СССР, Чехословакия, военный, DVDRip от AVP Studio] pb.wtf

Майские звезды через торрент pb.wtf

Размер: 1.09 GB | Добавлен: 1 год 11 мес. назад | Торрент скачан:19 раз
Скачать  

03-12-2017 12:07 Майские звезды Скачать торрент  

Майские звезды
Страна: СССР
Производство: Киностудия им. М. Горького, Баррандов

Жанр: военный
Год выпуска: 1959
Продолжительность: 01:27:42

Перевод: Не требуется
Cубтитры: нет
Оригинальная аудиодорожка: русский

Режиссер: Станислав Ростоцкий

В ролях:
Александр Ханов, Миша Станинец, Вячеслав Тихонов, Яна Брейхова, Яна Дитетова, Зденек Дите, Михаил Пуговкин, Николай Крючков, Леонид Быков, Юрий Белов, Олег Голубицкий, Николай Довженко, Леонид Чубаров, Франтишек Кройцман, Милош Недбал, Ладислав Пешек, Иржина Била, Иржина Богдалова, Франтишек Вноучек, Иржи Вондрович, Мария Ежкова, Вера Календова, Владимир Клеменс, Богуслав Купшовский, Марта Майева, Геда Маркова, Отто Мотычка, Мария Надемлейнска, Богуш Рендл, Вацлав Трегл, Иозеф Шидлиховский, Карел Эффа...
Об актёрах подробней

Описание:
Фильм состоит из четырёх новелл.
О первых днях мира после трудных годин войны, о счастье возвращения к мирному труду. События происходят в Праге в первый день после ее освобождения, в мае 1945 года.

Источник: DVD5 R5
Качество видео: DVDRip
Формат видео: AVI

Видео: 688x512 (4:3), 25 fps, XviD ~ 1384 kbps avg, 0.157 bit/pixel
Аудио: 48 kHz, Dolby Digital AC3 5.1, 384 kbps

Раздача от:
Общее
Полное имя : Mayskie.zvezdy.1959.DVDRip_[New-team]_by_AVP_Studio.avi
Формат : AVI
Формат/Информация : Audio Video Interleave
Размер файла : 1,09 Гбайт
Продолжительность : 1 ч. 27 м.
Общий поток : 1778 Кбит/сек
Программа кодирования : VirtualDubMod 1.5.10.3 | www.virtualdub-fr.org || (build 2550/release)
Библиотека кодирования : VirtualDubMod build 2550/release

Видео
Идентификатор : 0
Формат : MPEG-4 Visual
Профиль формата : Advanced Simple@L5
Настройки формата : BVOP1 / Custom Matrix
Параметр BVOP формата : 1
Параметр QPel формата : Нет
Параметр GMC формата : Без точки перехода
Параметр матрицы формата : Выборочная
Идентификатор кодека : XVID
Идентификатор кодека/Подсказка : XviD
Продолжительность : 1 ч. 27 м.
Битрейт : 1384 Кбит/сек
Ширина : 688 пикселей
Высота : 512 пикселей
Соотношение сторон : 4:3
Частота кадров : 25,000 кадров/сек
Цветовое пространство : YUV
Субдискретизация насыщенности : 4:2:0
Битовая глубина : 8 бит
Тип развёртки : Прогрессивная
Метод сжатия : С потерями
Бит/(Пиксели*Кадры) : 0.157
Размер потока : 868 Мбайт (78%)
Библиотека кодирования : XviD 73

Аудио
Идентификатор : 1
Формат : AC-3
Формат/Информация : Audio Coding 3
Идентификатор кодека : 2000
Продолжительность : 1 ч. 27 м.
Вид битрейта : Постоянный
Битрейт : 384 Кбит/сек
Каналы : 6 каналов
Расположение каналов : Front: L C R, Side: L R, LFE
Частота : 48,0 КГц
Частота кадров : 31,250 кадров/сек (1536 SPF)
Битовая глубина : 16 бит
Метод сжатия : С потерями
Размер потока : 241 Мбайт (22%)
Выравнивание : Разделение по промежуткам
Продолжительность промежутка : 40 мс. (1,00 видеокадр)
Время предзагрузки промежутка : 500 мс
pb.wtf



Скачать Майские звезды через торрент http://s019.radikal.ru/i634/1712/f1/6903300cdb08.png Скачать фильм Майские звезды через торрент бесплантно в хорошем качестве Описание:Фильм состоит из четырёх новелл.О первых днях мира после трудных годин войны, о счастье возвращения к мирному труду. События ... 10 10 1
Info! Золотая раздача, скачанное не засчитывается.
Торрент: Зарегистрирован [2017-12-03 12:07] · скачан: 19 раз
Статус: √ проверено
Размер: 1.09 GB
Как cкачать? Как скачать Майские звезды через торрент | qTorrent

% Раздел Тема Автор DL S | L
Кино СССР [ 1.09 GB ] Майские звезды [1959 СССР Чехословакия военный DVDRip-AVC от AVP Studio] AVP Studio Скачать
1 | 0
Кино СССР [ 745 MB ] Майские звезды [1959 СССР Чехословакия военный DVDRip от AVP Studio] AVP Studio Скачать
1 | 0
Кино СССР [ 1.37 GB ] Майские звезды [1959 военный DVDRip] mihis Скачать
1 | 0


>> Регистрируемся здесь <<






Отзывы и комментарии о схеме читаем и пишем здесь: ---> Отзывы и комментарии о схеме

Новые благодарочки в телеграм довольных пользователей:
скриншот   скриншот   скриншот   скриншот   скриншот
    Дорогой пользователь! Огромная просьба, поблагодарите релизера, оцените раздачу и оставьте свои комментарий, если Вы скачали Майские звезды через торрент бесплатно! Внесите свою лепту в развитие PiratBit!
    Комментировать посты могут только пользователи прошедшие не сложную регистрацию
    Показать сообщения:    

    Майские звезды через торрент
    Скачать бесплатно Майские звезды
    Майские звезды скачать торрент
    Майские звезды смотреть онлайн
    Cкачать фильм Майские звезды бесплатно
    Майские звезды скачать торрент в хорошем качестве
    Майские звезды смотреть онлайн бесплатно в хорошем качестве


    Вы не можете начинать темы
    Вы не можете отвечать на сообщения
    Вы не можете редактировать свои сообщения
    Вы не можете удалять свои сообщения
    Вы не можете голосовать в опросах
    Вы не можете прикреплять файлы к сообщениям
    Вы можете скачивать файлы