новый адрес пиратбит piratbit
Мега распродажа FORZA HORIZON 4 ULTIMATE+ВСЕ DLC+ОНЛАЙН всего за 499р. 349 руб. (супер цена). Внимание количество ограничено!!!

iTunes

1+1

iTunes

мы

iTunes

1

iTunes

Чернобыль

iTunes

Ральф против интернета

Лицензия

ПШазам

Лицензия

Игра престолов

Лицензия

30
pack

ВАЖНО

!!Акция!!

Alien_RageХит недели

RePack

Resident Evil 21

ИГРА 18+

pack

RePack

Metro:Exodus

!!Акция!!

Alien_Rage

RePack

fifa19

RePack

Assassins Creed: Odyssey

RePack

NEED FOR SPEED™ PAYBACK

3 сезон

9 сезон

Бесстыжие 9 сезон

Все сериалы

все сериалы на PB.wtf

RePack

FAR CRY 5
Ребята, катастрофически не хватает 1900р. для оплаты серверов за Октябрь (всвязи с блокировками трафик упал в 3 раза), 1-2р., выручайте.
  

Майские звезды (Станислав Ростоцкий) [1959, СССР, Чехословакия, военный, DVDRip от AVP Studio] pb.wtf

Майские звезды через торрент pb.wtf

Размер: 745 MB | Добавлен: 1 год 11 мес. назад | Торрент скачан:31 раз
Скачать  

03-12-2017 12:08 Майские звезды Скачать торрент  

Майские звезды
Страна: СССР
Производство: Киностудия им. М. Горького, Баррандов

Жанр: военный
Год выпуска: 1959
Продолжительность: 01:27:42

Перевод: Не требуется
Cубтитры: нет
Оригинальная аудиодорожка: русский

Режиссер: Станислав Ростоцкий

В ролях:
Александр Ханов, Миша Станинец, Вячеслав Тихонов, Яна Брейхова, Яна Дитетова, Зденек Дите, Михаил Пуговкин, Николай Крючков, Леонид Быков, Юрий Белов, Олег Голубицкий, Николай Довженко, Леонид Чубаров, Франтишек Кройцман, Милош Недбал, Ладислав Пешек, Иржина Била, Иржина Богдалова, Франтишек Вноучек, Иржи Вондрович, Мария Ежкова, Вера Календова, Владимир Клеменс, Богуслав Купшовский, Марта Майева, Геда Маркова, Отто Мотычка, Мария Надемлейнска, Богуш Рендл, Вацлав Трегл, Иозеф Шидлиховский, Карел Эффа...
Об актёрах подробней

Описание:
Фильм состоит из четырёх новелл.
О первых днях мира после трудных годин войны, о счастье возвращения к мирному труду. События происходят в Праге в первый день после ее освобождения, в мае 1945 года.

Источник: DVD5 R5
Качество видео: DVDRip
Формат видео: AVI

Видео: 640x480 (4:3), 25 fps, XviD ~ 1050 kbps avg, 0.137 bit/pixel
Аудио: 48 kHz, MP3 2.0, 128 kbps

Раздача от:
Общее
Полное имя : Mayskie.zvezdy.1959.DVDRip-745_[New-team]_by_AVP_Studio.avi
Формат : AVI
Формат/Информация : Audio Video Interleave
Размер файла : 745 Мбайт
Продолжительность : 1 ч. 27 м.
Общий поток : 1188 Кбит/сек
Программа кодирования : VirtualDubMod 1.5.10.3 | www.virtualdub-fr.org || (build 2550/release)
Библиотека кодирования : VirtualDubMod build 2550/release

Видео
Идентификатор : 0
Формат : MPEG-4 Visual
Профиль формата : Advanced Simple@L5
Настройки формата : BVOP1 / Custom Matrix
Параметр BVOP формата : 1
Параметр QPel формата : Нет
Параметр GMC формата : Без точки перехода
Параметр матрицы формата : Выборочная
Идентификатор кодека : XVID
Идентификатор кодека/Подсказка : XviD
Продолжительность : 1 ч. 27 м.
Битрейт : 1050 Кбит/сек
Ширина : 640 пикселей
Высота : 480 пикселей
Соотношение сторон : 4:3
Частота кадров : 25,000 кадров/сек
Цветовое пространство : YUV
Субдискретизация насыщенности : 4:2:0
Битовая глубина : 8 бит
Тип развёртки : Прогрессивная
Метод сжатия : С потерями
Бит/(Пиксели*Кадры) : 0.137
Размер потока : 659 Мбайт (88%)
Библиотека кодирования : XviD 73

Аудио
Идентификатор : 1
Формат : MPEG Audio
Версия формата : Version 1
Профиль формата : Layer 3
Идентификатор кодека : 55
Идентификатор кодека/Подсказка : MP3
Продолжительность : 1 ч. 27 м.
Вид битрейта : Постоянный
Битрейт : 128 Кбит/сек
Каналы : 2 канала
Частота : 48,0 КГц
Частота кадров : 41,667 кадра/сек (1152 SPF)
Метод сжатия : С потерями
Размер потока : 80,3 Мбайт (11%)
Выравнивание : Соединение по промежуткам
Продолжительность промежутка : 40 мс. (1,00 видеокадр)
Время предзагрузки промежутка : 504 мс.
Библиотека кодирования : LAME3.99r
Настройки программы : -m s -V 4 -q 2 -lowpass 17 -b 128
pb.wtf



Скачать Майские звезды через торрент http://s019.radikal.ru/i634/1712/f1/6903300cdb08.png Скачать фильм Майские звезды через торрент бесплантно в хорошем качестве Описание:Фильм состоит из четырёх новелл.О первых днях мира после трудных годин войны, о счастье возвращения к мирному труду. События ... 10 10 2
Info! Золотая раздача, скачанное не засчитывается.
Торрент: Зарегистрирован [2017-12-03 12:08] · скачан: 31 раз
Статус: √ проверено
Размер: 745 MB
Как cкачать? Как скачать Майские звезды через торрент | qTorrent

% Раздел Тема Автор DL S | L
Кино СССР [ 1.09 GB ] Майские звезды [1959 СССР Чехословакия военный DVDRip-AVC от AVP Studio] AVP Studio Скачать
1 | 0
Кино СССР [ 1.09 GB ] Майские звезды [1959 СССР Чехословакия военный DVDRip от AVP Studio] AVP Studio Скачать
1 | 0
Кино СССР [ 1.37 GB ] Майские звезды [1959 военный DVDRip] mihis Скачать
1 | 0


>> Регистрируемся здесь <<






Отзывы и комментарии о схеме читаем и пишем здесь: ---> Отзывы и комментарии о схеме

Новые благодарочки в телеграм довольных пользователей:
скриншот   скриншот   скриншот   скриншот   скриншот
    Дорогой пользователь! Огромная просьба, поблагодарите релизера, оцените раздачу и оставьте свои комментарий, если Вы скачали Майские звезды через торрент бесплатно! Внесите свою лепту в развитие PiratBit!
    Комментировать посты могут только пользователи прошедшие не сложную регистрацию
    Показать сообщения:    

    Майские звезды через торрент
    Скачать бесплатно Майские звезды
    Майские звезды скачать торрент
    Майские звезды смотреть онлайн
    Cкачать фильм Майские звезды бесплатно
    Майские звезды скачать торрент в хорошем качестве
    Майские звезды смотреть онлайн бесплатно в хорошем качестве


    Вы не можете начинать темы
    Вы не можете отвечать на сообщения
    Вы не можете редактировать свои сообщения
    Вы не можете удалять свои сообщения
    Вы не можете голосовать в опросах
    Вы не можете прикреплять файлы к сообщениям
    Вы можете скачивать файлы