Ссылка на приватное зеркало нашего сайта всего за 1$. Внимание количество ограничено!!!

2 сезон

iTunes

1 сезон

1

iTunes

iTunes

iTunes

1 сезон

RePack

30

ИГРА 18+

pack

ВАЖНО

!!Акция!!

Alien_RageХит недели

RePack

MK11
pack

Забери бонус

RePack

jed

!!Акция!!

Alien_Rage

RePack

fifa19

RePack

Assassins Creed: Odyssey

RePack

NEED FOR SPEED™ PAYBACK

4 сезон

9 сезон

Бесстыжие 9 сезон

Все сериалы

все сериалы на PB.wtf

RePack

FAR CRY 5
  

Чернобыль. Зона отчуждения / Сезон 2 / Серии 1-8 из 8 (Павел Костомаров) [2017, Мистический триллер, WEBRip 720p] pb.wtf

Чернобыль. Зона отчуждения через торрент pb.wtf

Раздают: 5 [ 0 KB/s ]
Размер: 8.99 GB | Добавлен: 2 года 10 мес. назад | Торрент скачан:1826 раз
Скачать  

03-12-2017 13:04 Чернобыль. Зона отчуждения Скачать торрент  

Чернобыль. Зона отчужденияГод выпуска: 2017
Страна: Россия
Жанр: Мистический триллер
Продолжительность: 8 х ~ 00:39:00
Перевод: Не требуется
Субтитры: отсутствуют

Режиссер: Павел Костомаров



В ролях:

Кристина Казинская, Анвар Халилулаев, Сергей Романович, Валерия Дмитриева, Константин Давыдов, Евгений Стычкин, Юрий Скулябин

Описание:

Действие разворачивается в США, где в результате взрыва на атомной станции образовалась гигантская Зона отчуждения, заселённая бандитами - государство при этом погрузилось в хаос гражданской войны. Перед всеми, кто попадает на эту территорию, встает вопрос жизни и смерти – или вопрос борьбы за личную свободу против диктатуры насилия.

Качество: WEBRip 720p
Формат: MKV
Видео кодек: H.264
Аудио кодек: AC3

Видео: 1280х720 (16:9), 25 fps, AVC MPEG-4 (x264), High@L4.0 ~ 3500 kbps avg, 0.155 bit/pixel
Аудио#1: 48 kHz, AC3, 2 ch, ~ 192 kbps avg
скриншот   скриншот   скриншот   скриншот  

Общее
Уникальный идентификатор : 213186556185776223213772397930658364462 (0xA0623CBB193CD3D6AA4491553DB77C2E)
Полное имя : C:\Chernobyl.S.02.Zona.otchuzhdeniya.2017.WEBRip.(720p).Nikolspup\Chernobyl.S02.Zona.otchuzhdeniya.(01.seriya).2017.WEBRip.(720p).Nikolspup.mkv
Формат : Matroska
Версия формата : Version 2
Размер файла : 1,02 Гбайт
Продолжительность : 38 м. 41 с.
Общий поток : 3771 Кбит/сек
Программа кодирования : Lavf54.63.104
Библиотека кодирования : Lavf54.63.104 / Lavf54.63.104

Видео
Идентификатор : 1
Формат : AVC
Формат/Информация : Advanced Video Codec
Профиль формата : High@L3.1
Параметр CABAC формата : Да
Параметр ReFrames формата : 1 кадр
Параметр GOP формата : M=1, N=12
Идентификатор кодека : V_MPEG4/ISO/AVC
Продолжительность : 38 м. 41 с.
Битрейт : 3504 Кбит/сек
Ширина : 1280 пикселей
Высота : 720 пикселей
Соотношение сторон : 16:9
Режим частоты кадров : Постоянный
Частота кадров : 25,000 кадров/сек
Стандарт вещания : Component
Цветовое пространство : YUV
Субдискретизация насыщенности : 4:2:0
Битовая глубина : 8 бит
Тип развёртки : Прогрессивная
Бит/(Пиксели*Кадры) : 0.152
Размер потока : 970 Мбайт (93%)
Default : Нет
Forced : Нет
Цветовой диапазон : Limited

Аудио
Идентификатор : 2
Формат : AC-3
Формат/Информация : Audio Coding 3
Расширение режима : CM (complete main)
Параметр Endianness формата : Big
Идентификатор кодека : A_AC3
Продолжительность : 38 м. 41 с.
Вид битрейта : Постоянный
Битрейт : 192 Кбит/сек
Каналы : 2 канала
Расположение каналов : Front: L R
Частота : 48,0 КГц
Частота кадров : 31,250 кадров/сек (1536 spf)
Метод сжатия : С потерями
Размер потока : 53,1 Мбайт (5%)
Язык : Russian
Default : Да
Forced : Нет

pb.wtf



Скачать Чернобыль. Зона отчуждения через торрент http://i98.fastpic.ru/big/2017/1110/03/659a9382d75f3f8aea107619359f1103.jpg Скачать фильм Чернобыль. Зона отчуждения через торрент бесплантно в хорошем качестве Описание: Действие разворачивается в США, где в результате взрыва на атомной станции образовалась гигантская Зона отчуждения, заселённая ... 9.7 10 46
Info! Золотая раздача, скачанное не засчитывается.
Торрент: Зарегистрирован [2017-12-03 13:04] · скачан: 1 826 раз
Статус: √ проверено
Размер: 8.99 GB
Как cкачать? Как скачать Чернобыль. Зона отчуждения через торрент | qTorrent

% Раздел Тема Автор DL S | L
Наши сериалы [ 4.6 GB ] Чернобыль. Зона отчуждения / Сезон 2 / Серии 1-8 из 8 [2017 Мистический WEBRip] bober100 Скачать
1 | 0
Наши сериалы [ 4.51 GB ] Чернобыль. Зона отчуждения / Сезон 2 / Серии 1-8 из 8 [2017 Мистический SATRip] bober100 Скачать
2 | 0

28-11-2019 20:33  

Отключить всю рекламу на сайте

03-12-2017 14:07 Чернобыль. Зона отчуждения Скачать торрент  

Чот я не чаво не понял с этой концовкой!!pb.wtf



03-12-2017 15:00 Чернобыль. Зона отчуждения Скачать торрент  

burjui писал(а):

Чот я не чаво не понял с этой концовкой!!

а ее и нету будет 3 сезонpb.wtf



03-12-2017 20:30 Чернобыль. Зона отчуждения Скачать торрент  

Конец какой то скомканый .... не понятный ....pb.wtf



04-12-2017 14:55 Чернобыль. Зона отчуждения Скачать торрент  

Всем привет! Досмотрел вчера последние 2 серии, я ничего не понял в конце вообще:) Как - то всё намудрили, пересмотрю потом полностью сезон. На мой взгляд 2 сезон слабоват, ожидал чего-то захватывающего, но не то как-то:)pb.wtf



09-12-2017 03:42 Чернобыль. Зона отчуждения Скачать торрент  

фильм нормуль ребзя,жду продолженияpb.wtf



09-12-2017 04:18 Чернобыль. Зона отчуждения Скачать торрент  

AlexBoss писал(а):

фильм нормуль ребзя,жду продолжения

Долго придётсяpb.wtf



15-01-2018 23:34 Чернобыль. Зона отчуждения Скачать торрент  

лучше бы три фильма сталкер по игрухе сняли чем эту муть сниматьpb.wtf



24-01-2018 17:35 Чернобыль. Зона отчуждения Скачать торрент  

Отличный сериал! pb.wtf



    Дорогой пользователь! Огромная просьба, поблагодарите релизера, оцените раздачу и оставьте свои комментарий, если Вы скачали Чернобыль. Зона отчуждения через торрент бесплатно! Внесите свою лепту в развитие PiratBit!
    Комментировать посты могут только пользователи прошедшие не сложную регистрацию
    Показать сообщения:    

    Чернобыль. Зона отчуждения через торрент
    Скачать бесплатно Чернобыль. Зона отчуждения
    Чернобыль. Зона отчуждения скачать торрент
    Чернобыль. Зона отчуждения смотреть онлайн
    Cкачать фильм Чернобыль. Зона отчуждения бесплатно
    Чернобыль. Зона отчуждения скачать торрент в хорошем качестве
    Чернобыль. Зона отчуждения смотреть онлайн бесплатно в хорошем качестве


    Вы не можете начинать темы
    Вы не можете отвечать на сообщения
    Вы не можете редактировать свои сообщения
    Вы не можете удалять свои сообщения
    Вы не можете голосовать в опросах
    Вы не можете прикреплять файлы к сообщениям
    Вы можете скачивать файлы