Ссылка на приватное зеркало нашего сайта всего за 1$. Внимание количество ограничено!!!

2 сезон

iTunes

1 сезон

1

iTunes

iTunes

iTunes

1 сезон

RePack

30

ИГРА 18+

pack

ВАЖНО

!!Акция!!

Alien_RageХит недели

RePack

MK11
pack

Забери бонус

RePack

jed

!!Акция!!

Alien_Rage

RePack

fifa19

RePack

Assassins Creed: Odyssey

RePack

NEED FOR SPEED™ PAYBACK

4 сезон

9 сезон

Бесстыжие 9 сезон

Все сериалы

все сериалы на PB.wtf

RePack

FAR CRY 5
  

Лучик / Серии 1-4 из 4 (Максим Бриус) [2016, Мелодрама, WEB-DLRip] pb.wtf

Лучик через торрент pb.wtf

Размер: 2.35 GB | Добавлен: 2 года 10 мес. назад | Торрент скачан:121 раз
Скачать  

03-12-2017 17:18 Лучик Скачать торрент  

ЛучикГод выпуска: 2016
Страна: Россия
Производство: Кинокомпания ­«Марс Медиа»
Жанр: Мелодрама
Продолжительность: по 00:50:00
Перевод: Не требуется
Субтитры: отсутствуют
Реклама: Отсутствует

Режиссер: Максим Бриус



В ролях:

Александр Устюгов, Галина Сумина, Георгий Стрелянный, Валерия Шкирандо, Николай Козак, Галина Бокашевская, Ирина Безрукова, Игорь Воробьёв, Александр Обласов, Григорий Калинин, Александр Барановский, Илья Алексеев, Михаил Павлик, Ася Князева

Описание:

Глеб живёт в своё удовольствие и семьёй обзаводиться не собирается. Он ни в чём себе не отказывает и ни к кому не привязывается надолго. Но наследник — другое дело, наследник ему нужен. Глеб обращается в агентство и нанимает Машу, которая должна родить ему сына, получить деньги и исчезнуть. Однако после рождения мальчика всё так складывается, что Маша остается в доме Глеба, ведёт хозяйство, воспитывает сына, которого за его счастливую улыбку все называют Лучиком. Проходит семь лет, и Глеб понимает, что уже "наигрался" в семью. Он возвращается к прежнему разгульному образу жизни, а Маша, не желая с этим мириться, забирает ребёнка и уезжает. И начинается жестокая битва за сына. На стороне Глеба — лучшие адвокаты, деньги, связи, наконец, закон. На стороне Маши — только любовь Лучика...

Качество: WEB-DLRip
Формат: AVI
Видео кодек: XviD
Аудио кодек: AC3

Видео: 720x400 (16:9), 25 fps, XviD ~1 450 kbps avg, 0.204 bit/pixel
Аудио: 48 KHz, AC3, 2 ch, ~192.00 kbps avg
скриншот   скриншот   скриншот   скриншот  

Общее
Полное имя : D:\Luchik.2016.WEB-DLRip.OlLanDGroup\01.Luchik.2016.WEB-DLRip.OlLanDGroup.avi
Формат : AVI
Формат/Информация : Audio Video Interleave
Размер файла : 601 Мбайт
Продолжительность : 52 м. 28 с.
Общий поток : 1601 Кбит/сек
Программа кодирования : VirtualDubMod 1.5.10.3 | www.virtualdub-fr.org || (build 2550/release)
Библиотека кодирования : VirtualDubMod build 2550/release

Видео
Идентификатор : 0
Формат : MPEG-4 Visual
Профиль формата : Advanced Simple@L5
Параметр BVOP формата : 1
Параметр QPel формата : Нет
Параметр GMC формата : Без точки перехода
Параметр матрицы формата : Выборочная
Идентификатор кодека : XVID
Идентификатор кодека/Подсказка : XviD
Продолжительность : 52 м. 28 с.
Битрейт : 1399 Кбит/сек
Ширина : 720 пикселей
Высота : 400 пикселей
Соотношение сторон : 16:9
Частота кадров : 25,000 кадров/сек
Цветовое пространство : YUV
Субдискретизация насыщенности : 4:2:0
Битовая глубина : 8 бит
Тип развёртки : Прогрессивная
Метод сжатия : С потерями
Бит/(Пиксели*Кадры) : 0.194
Размер потока : 525 Мбайт (87%)
Библиотека кодирования : XviD 73

Аудио
Идентификатор : 1
Формат : AC-3
Формат/Информация : Audio Coding 3
Расширение режима : CM (complete main)
Параметр Endianness формата : Big
Идентификатор кодека : 2000
Продолжительность : 52 м. 28 с.
Вид битрейта : Постоянный
Битрейт : 192 Кбит/сек
Каналы : 2 канала
Расположение каналов : Front: L R
Частота : 48,0 КГц
Частота кадров : 31,250 кадров/сек (1536 spf)
Метод сжатия : С потерями
Размер потока : 72,1 Мбайт (12%)
Выравнивание : Разделение по промежуткам
Продолжительность промежутка : 40 мс. (1,00 видеокадр)
Время предзагрузки промежутка : 500 мс.

pb.wtf



Скачать Лучик через торрент http://lostpix.com/img/2017-12/03/7lr0gexani7yw8apt5evgijec.jpg Скачать фильм Лучик через торрент бесплантно в хорошем качестве Описание: Глеб живёт в своё удовольствие и семьёй обзаводиться не собирается. Он ни в чём себе не отказывает и ни к кому не привязывается ... 9.9 10 7
Торрент: Зарегистрирован [2017-12-03 17:18] · скачан: 121 раз
Статус: √ проверено
Размер: 2.35 GB
Как cкачать? Как скачать Лучик через торрент | qTorrent

28-11-2019 20:33  

Отключить всю рекламу на сайте

    Дорогой пользователь! Огромная просьба, поблагодарите релизера, оцените раздачу и оставьте свои комментарий, если Вы скачали Лучик через торрент бесплатно! Внесите свою лепту в развитие PiratBit!
    Комментировать посты могут только пользователи прошедшие не сложную регистрацию
    Показать сообщения:    

    Лучик через торрент
    Скачать бесплатно Лучик
    Лучик скачать торрент
    Лучик смотреть онлайн
    Cкачать фильм Лучик бесплатно
    Лучик скачать торрент в хорошем качестве
    Лучик смотреть онлайн бесплатно в хорошем качестве


    Вы не можете начинать темы
    Вы не можете отвечать на сообщения
    Вы не можете редактировать свои сообщения
    Вы не можете удалять свои сообщения
    Вы не можете голосовать в опросах
    Вы не можете прикреплять файлы к сообщениям
    Вы можете скачивать файлы