Ссылка на приватное зеркало нашего сайта всего за 1$. Внимание количество ограничено!!!

2 сезон

iTunes

1 сезон

1

2 сезон

2 сезон

iTunes

1 сезон

RePack

30

Ultimate

ВАЖНО

ИГРА 18+

pack

RePack

MK11
pack

Забери бонус

RePack

jed

!!Акция!!

Alien_Rage

RePack

fifa19

RePack

Assassins Creed: Odyssey

RePack

NEED FOR SPEED™ PAYBACK

4 сезон

9 сезон

Бесстыжие 9 сезон

Все сериалы

все сериалы на PB.wtf

RePack

FAR CRY 5
  

Тьма / Dark / Сезон 1 / Серии 1-10 из 10 (Баран бо Одар) [2017, Триллер, драма, криминал, детектив, WEBRip] MVO [NewStudio] pb.wtf

Тьма через торрент pb.wtf

Раздают: 1 [ 0 KB/s ]
Размер: 8.74 GB | Добавлен: 2 года 11 мес. назад | Торрент скачан:384 раза
Скачать  

04-12-2017 08:19 Тьма Скачать торрент  

Тьма / DarkГод выпуска: 2017
Страна: Германия
Жанр: Триллер, драма, криминал, детектив
Продолжительность: ~ 00:52:00
Перевод: Профессиональный многоголосый NewStudio
Субтитры: Русские (форсированные, надписи и немую речь)

Режиссер: Баран бо Одар

rating

В ролях:

Оливер Мазуччи, Каролина Эйхгорн, Йордис Трибель, Луис Хофманн, Майя Шёне, Штефан Кампвирт, Андреас Пичман, Дебора Кауфман, Татя Зайбт

Описание:

История четырёх семей, живущих спокойной и размеренной жизнью в маленьком немецком городке. Видимая идиллия рушится, когда бесследно исчезают двое детей и воскресают тёмные тайны прошлого. Все силы местного департамента полиции и горожан брошены на поиски пропавших детей. Все повторяется, как и 33 года назад. Что-то не так в городе. Эта местность, словно больна и одержима мистикой. А самое страшное, что убийца, возможно, ходит среди обитателей деревушки.

Качество: WEBRip
Формат: AVI
Видео кодек: XviD
Аудио кодек: AC3

Видео: 720x360 (2.00:1), 24 fps, XviD ~2 000 kbps avg, 0.32 bit/pixel
Аудио: AC3, 6 ch, 384 Кбит/с
скриншот   скриншот   скриншот   скриншот  

Общее
Полное имя : C:\Users\Бобер\Desktop\Dark\Dark.s01e01.NewStudio.avi
Формат : AVI
Формат/Информация : Audio Video Interleave
Размер файла : 886 Мбайт
Продолжительность : 51 м. 30 с.
Общий поток : 2404 Кбит/сек
Программа кодирования : VirtualDubMod 1.5.10.3 | www.virtualdub-fr.org || (build 2550/release)
Библиотека кодирования : VirtualDubMod build 2550/release

Видео
Идентификатор : 0
Формат : MPEG-4 Visual
Профиль формата : Advanced Simple@L5
Параметр BVOP формата : 1
Параметр QPel формата : Нет
Параметр GMC формата : Без точки перехода
Параметр матрицы формата : Default (MPEG)
Идентификатор кодека : XVID
Идентификатор кодека/Подсказка : XviD
Продолжительность : 51 м. 30 с.
Битрейт : 1916 Кбит/сек
Ширина : 720 пикселей
Высота : 360 пикселей
Соотношение сторон : 2,000
Частота кадров : 24,000 кадра/сек
Цветовое пространство : YUV
Субдискретизация насыщенности : 4:2:0
Битовая глубина : 8 бит
Тип развёртки : Прогрессивная
Метод сжатия : С потерями
Бит/(Пиксели*Кадры) : 0.308
Размер потока : 706 Мбайт (80%)
Библиотека кодирования : XviD 1.2.1 (UTC 2008-12-04)

Аудио
Идентификатор : 1
Формат : AC-3
Формат/Информация : Audio Coding 3
Расширение режима : CM (complete main)
Параметр Endianness формата : Big
Идентификатор кодека : 2000
Продолжительность : 51 м. 16 с.
Вид битрейта : Постоянный
Битрейт : 384 Кбит/сек
Каналы : 6 каналов
Расположение каналов : Front: L C R, Side: L R, LFE
Частота : 48,0 КГц
Частота кадров : 31,250 кадров/сек (1536 spf)
Метод сжатия : С потерями
Размер потока : 141 Мбайт (16%)
Выравнивание : Разделение по промежуткам

Когда раздача ведётся путём добавления новых серий, при каждом добавлении создётся новый торрент. Чтобы начать докачку новой серии, пользователям необходимо сделать следующее:
(1) остановить скачивание,
(2) удалить старый торрент у себя из клиента (старые серии удалять не надо),
(3) скачать новый торрент и запустить его у себя в клиенте вместо старого, при этом указать клиенту путь в старую папку, куда и должно происходить скачивание новых серий.
Ваш клиент при этом должен произвести хеширование (проверку) старой папки (если не производит сам - помогите ему сделать это), и будет докачивать только те серии, которых у вас ещё нет. Старые серии при этом не удаляются, а продолжают раздаваться!
Eсли вы уже удалили старые серии, то предотвратить повторную закачку старых серий можно, отжав галочку в соответсвующих местах при запуске нового торрента. По возможности, желательно не удалять старые серии как можно дольше, чтобы релизёр не столько продолжал раздавать старые серии, а смог сконцентрироваться на новых.
pb.wtf



Скачать Тьма через торрент http://img12.lostpic.net/2017/12/08/d965055efbdf6bec0424451fc3cc9f50.png Скачать фильм Тьма через торрент бесплантно в хорошем качестве Описание: История четырёх семей, живущих спокойной и размеренной жизнью в маленьком немецком городке. Видимая идиллия рушится, когда ... 10 10 7
Торрент: Зарегистрирован [2017-12-15 20:45] · скачан: 384 раз
Статус: √ проверено
Размер: 8.74 GB
Как cкачать? Как скачать Тьма через торрент | qTorrent

% Раздел Тема Автор DL S | L
Зарубежные сериалы [ 18.02 GB ] Тьма / Dark / Сезон: 2 / Серии: 1-8 из 8 [2019 WEBRip 1080p] [MVO] killermax2013 Скачать
5 | 0
Зарубежные сериалы [ 31.14 GB ] Тьма / Dark / Сезон: 3 / Серии: 1-8 из 8 [2020 WEBRip 1080p] DVO [Gears Media] bober100 Скачать
2 | 0
Зарубежные сериалы [ 15.79 GB ] Тьма / Dark / Сезон 1 / Серии 1-10 из 10 [2017 WEBRip 720p] MVO [LostFilm] bober100 Скачать
5 | 1
Зарубежные сериалы [ 21.73 GB ] Тьма / Dark / Сезон: 3 / Серии: 1-8 из 8 [2020 WEBRip 1080p] MVO [Jaskier] bober100 Скачать
2 | 0
Зарубежные сериалы [ 24.88 GB ] Тьма / Dark / Сезон: 3 / Серии: 1-8 из 8 [2020 WEBRip 1080p] MVO [NewStudio] +DVO [Кубик в Кубе] bober100 Скачать
5 | 0
Зарубежные сериалы [ 22.63 GB ] Тьма / Dark / Сезон: 3 / Серии: 1-8 из 8 [2020 WEBRip 1080p] MVO [NewStudio] bober100 Скачать
14 | 4
Зарубежные сериалы [ 15.83 GB ] Тьма / Dark / Сезон: 3 / Серии: 1-8 из 8 [2020 WEB-DL 1080p] MVO [HDRezka Studio] bober100 Скачать
3 | 0

28-11-2019 20:33  

Отключить всю рекламу на сайте

15-12-2017 23:33 Тьма Скачать торрент  

Хороший сериал лихо его закрутили к финалу придется напрячь извилины чтобы все понять, ведь действие происходит сразу в прошлом настоящем и будущем. Судя по концовке будет продолжение, любителям очень запутанных историй и загадок советую к просмотру.pb.wtf



17-12-2017 17:01 Тьма Скачать торрент  

тритий скрин.. как хорошpb.wtf



22-12-2017 17:03 Тьма Скачать торрент  

смотреть можноpb.wtf



    Дорогой пользователь! Огромная просьба, поблагодарите релизера, оцените раздачу и оставьте свои комментарий, если Вы скачали Тьма через торрент бесплатно! Внесите свою лепту в развитие PiratBit!
    Комментировать посты могут только пользователи прошедшие не сложную регистрацию
    Показать сообщения:    

    Тьма через торрент
    Скачать бесплатно Тьма
    Тьма скачать торрент
    Тьма смотреть онлайн
    Cкачать фильм Тьма бесплатно
    Тьма скачать торрент в хорошем качестве
    Тьма смотреть онлайн бесплатно в хорошем качестве


    Вы не можете начинать темы
    Вы не можете отвечать на сообщения
    Вы не можете редактировать свои сообщения
    Вы не можете удалять свои сообщения
    Вы не можете голосовать в опросах
    Вы не можете прикреплять файлы к сообщениям
    Вы можете скачивать файлы