новый адрес
Мега распродажа FORZA HORIZON 4 ULTIMATE+ВСЕ DLC+ОНЛАЙН всего за 499р. 349 руб. (супер цена). Внимание количество ограничено!!!

iTunes

1+1

iTunes

мы

iTunes

1

iTunes

Чернобыль

iTunes

Ральф против интернета

Лицензия

ПШазам

Лицензия

Оно 2

Лицензия

30
pack

ВАЖНО

!!Акция!!

Alien_RageХит недели

RePack

Resident Evil 21

ИГРА 18+

pack

RePack

jed

!!Акция!!

Alien_Rage

RePack

fifa19

RePack

Assassins Creed: Odyssey

RePack

NEED FOR SPEED™ PAYBACK

3 сезон

9 сезон

Бесстыжие 9 сезон

Все сериалы

все сериалы на PB.wtf

RePack

FAR CRY 5
Ребята, катастрофически не хватает 1900р. для оплаты серверов за Октябрь (всвязи с блокировками трафик упал в 3 раза), 1-2р., выручайте.
  

Судьба человека (Сергей Бондарчук) [1959, СССР, драма, военный, DVDRip от AVP Studio] pb.wtf

Судьба человека через торрент pb.wtf

Размер: 1.46 GB | Добавлен: 1 год 11 мес. назад | Торрент скачан:41 раз
Скачать  

05-12-2017 07:12 Судьба человека Скачать торрент  

Судьба человека
Страна: СССР
Производство: Мосфильм

Жанр: драма, военный
Год выпуска: 1959
Продолжительность: 01:36:37

Перевод: Не требуется
Cубтитры: нет
Оригинальная аудиодорожка: русский

Режиссер: Сергей Бондарчук

В ролях:
Сергей Бондарчук, Паша Борискин, Зинаида Кириенко, Павел Волков, Юрий Аверин, Константин Алексеев...
Об актёрах подробней

Описание:
По одноименному рассказу М. Шолохова.
Первая послевоенная весна. Широко разлился Дон. Сюда к переправе подошёл бывший солдат Андрей Соколов с мальчиком. Встретив доброго человека, разговорился и поведал ему непростую историю своей жизни...

Источник: DVD9 R5
Качество видео: DVDRip
Формат видео: AVI

Видео: 704x528 (4:3), 25 fps, XviD ~ 1703 kbps avg, 0.183 bit/pixel
Аудио: 48 kHz, Dolby Digital AC3 5.1, 448 kbps

Раздача от:
Общее
Полное имя : Sudba.cheloveka aka.1959.DVDRip_[New-team]_by_AVP_Studio.avi
Формат : AVI
Формат/Информация : Audio Video Interleave
Размер файла : 1,46 Гбайт
Продолжительность : 1 ч. 36 м.
Общий поток : 2161 Кбит/сек
Программа кодирования : VirtualDubMod 1.5.10.3 | www.virtualdub-fr.org || (build 2550/release)
Библиотека кодирования : VirtualDubMod build 2550/release

Видео
Идентификатор : 0
Формат : MPEG-4 Visual
Профиль формата : Advanced Simple@L5
Настройки формата : BVOP1 / Custom Matrix
Параметр BVOP формата : 1
Параметр QPel формата : Нет
Параметр GMC формата : Без точки перехода
Параметр матрицы формата : Выборочная
Идентификатор кодека : XVID
Идентификатор кодека/Подсказка : XviD
Продолжительность : 1 ч. 36 м.
Битрейт : 1703 Кбит/сек
Ширина : 704 пикселя
Высота : 528 пикселей
Соотношение сторон : 4:3
Частота кадров : 25,000 кадров/сек
Цветовое пространство : YUV
Субдискретизация насыщенности : 4:2:0
Битовая глубина : 8 бит
Тип развёртки : Прогрессивная
Метод сжатия : С потерями
Бит/(Пиксели*Кадры) : 0.183
Размер потока : 1,15 Гбайт (79%)
Библиотека кодирования : XviD 73

Аудио
Идентификатор : 1
Формат : AC-3
Формат/Информация : Audio Coding 3
Идентификатор кодека : 2000
Продолжительность : 1 ч. 36 м.
Вид битрейта : Постоянный
Битрейт : 448 Кбит/сек
Каналы : 6 каналов
Расположение каналов : Front: L C R, Side: L R, LFE
Частота : 48,0 КГц
Частота кадров : 31,250 кадров/сек (1536 SPF)
Битовая глубина : 16 бит
Метод сжатия : С потерями
Размер потока : 310 Мбайт (21%)
Выравнивание : Разделение по промежуткам
Продолжительность промежутка : 40 мс. (1,00 видеокадр)
Время предзагрузки промежутка : 500 мс
pb.wtf



Скачать Судьба человека через торрент http://s018.radikal.ru/i501/1712/ec/5e31e83f83ea.png Скачать фильм Судьба человека через торрент бесплантно в хорошем качестве Описание:По одноименному рассказу М. Шолохова.Первая послевоенная весна. Широко разлился Дон. Сюда к переправе подошёл бывший солдат Андрей ... 10 10 3
Info! Золотая раздача, скачанное не засчитывается.
Торрент: Зарегистрирован [2017-12-05 07:12] · скачан: 41 раз
Статус: √ проверено
Размер: 1.46 GB
Как cкачать? Как скачать Судьба человека через торрент | qTorrent

% Раздел Тема Автор DL S | L
Кино СССР [ 5.89 GB ] Судьба человека [1959 военный WEBRip 720 от KORSAR] filbi1976 Скачать
1 | 0
Кино СССР [ 1.46 GB ] Судьба человека [1959 СССР военный DVDRip-AVC от AVP Studio] AVP Studio Скачать
1 | 0
Кино СССР [ 745 MB ] Судьба человека [1959 СССР военный DVDRip от AVP Studio] AVP Studio Скачать
1 | 0
Кино СССР [ 1.99 GB ] Судьба человека [1959 военный DVDRip-AVC] smaster Скачать
1 | 0
Документальные фильмы и телепередачи [ 585 MB ] Судьба человека. Украденная красота [2016 документальный VOD-DL 720p ] кэп Скачать
1 | 0
Кино СССР [ 1.46 GB ] Судьба человека [1959 военный биография DVDRip] Anonymous Скачать
1 | 0


>> Регистрируемся здесь <<






Отзывы и комментарии о схеме читаем и пишем здесь: ---> Отзывы и комментарии о схеме

Новые благодарочки в телеграм довольных пользователей:
скриншот   скриншот   скриншот   скриншот   скриншот
    Дорогой пользователь! Огромная просьба, поблагодарите релизера, оцените раздачу и оставьте свои комментарий, если Вы скачали Судьба человека через торрент бесплатно! Внесите свою лепту в развитие PiratBit!
    Комментировать посты могут только пользователи прошедшие не сложную регистрацию
    Показать сообщения:    

    Судьба человека через торрент
    Скачать бесплатно Судьба человека
    Судьба человека скачать торрент
    Судьба человека смотреть онлайн
    Cкачать фильм Судьба человека бесплатно
    Судьба человека скачать торрент в хорошем качестве
    Судьба человека смотреть онлайн бесплатно в хорошем качестве


    Вы не можете начинать темы
    Вы не можете отвечать на сообщения
    Вы не можете редактировать свои сообщения
    Вы не можете удалять свои сообщения
    Вы не можете голосовать в опросах
    Вы не можете прикреплять файлы к сообщениям
    Вы можете скачивать файлы