Ссылка на приватное зеркало нашего сайта всего за 1$. Внимание количество ограничено!!!

2 сезон

iTunes

1 сезон

1

iTunes

iTunes

iTunes

1 сезон

RePack

30

ИГРА 18+

pack

ВАЖНО

!!Акция!!

Alien_RageХит недели

RePack

MK11
pack

Забери бонус

RePack

jed

!!Акция!!

Alien_Rage

RePack

fifa19

RePack

Assassins Creed: Odyssey

RePack

NEED FOR SPEED™ PAYBACK

4 сезон

9 сезон

Бесстыжие 9 сезон

Все сериалы

все сериалы на PB.wtf

RePack

FAR CRY 5
  

Казнить нельзя помиловать / Сезон: 1 / Серии: 1-12 из 12 (Ким Дружинин) [2017, История, детектив, WEB-DLRip] pb.wtf

Казнить нельзя помиловать через торрент pb.wtf

Размер: 7.5 GB | Добавлен: 2 года 10 мес. назад | Торрент скачан:749 раз
Скачать  

05-12-2017 21:26 Казнить нельзя помиловать Скачать торрент  

Казнить нельзя помиловатьГод выпуска: 2017
Страна: Россия
Жанр: История, детектив
Продолжительность: ~ 00:48:00
Субтитры: отсутствуют

Режиссер: Ким Дружинин



В ролях:

Мария Кожевникова, Дмитрий Астрахан, Дмитрий Паламарчук, Максим Меркулов, Кирилл Рубцов, Александра Серебрякова, Геннадий Меньшиков, Роман Притула, Игорь Грабузов, Евгений Добряков

Описание:

Бывшая разведчица Нина Колосова после войны оказывается в Ленинграде, где царят преступность и криминал. Любимого мужа Нины, сотрудника отдела по борьбе с бандитизмом, убивают. Девушка решает мстить. Хладнокровно расстреливая воров и убийц, героиня наводит ужас на город. За расследование совершенных ею преступлений берется майор Борис Грановский.

Качество: WEB-DLRip
Формат: AVI
Видео кодек: XviD
Аудио кодек: MP3

Видео: XviD, 1700 Кбит/с, 720х400, 25 fps
Аудио#1: MP3, 2 ch, 128 Кбит/с
скриншот   скриншот   скриншот   скриншот  

Общее
Полное имя : D:\Kaznit.nelzja.pomilovat.2017.WEB-DLRip\01.serija.avi
Формат : AVI
Формат/Информация : Audio Video Interleave
Размер файла : 620 Мбайт
Продолжительность : 47 м. 40 с.
Общий поток : 1818 Кбит/сек
Программа кодирования : VirtualDubMod 1.5.10.3 | www.virtualdub-fr.org || (build 2550/release)
Библиотека кодирования : VirtualDubMod build 2550/release

Видео
Идентификатор : 0
Формат : MPEG-4 Visual
Профиль формата : Advanced Simple@L5
Параметр BVOP формата : 2
Параметр QPel формата : Нет
Параметр GMC формата : Без точки перехода
Параметр матрицы формата : Default (MPEG)
Идентификатор кодека : XVID
Идентификатор кодека/Подсказка : XviD
Продолжительность : 47 м. 40 с.
Битрейт : 1680 Кбит/сек
Ширина : 720 пикселей
Высота : 400 пикселей
Соотношение сторон : 16:9
Частота кадров : 25,000 кадров/сек
Цветовое пространство : YUV
Субдискретизация насыщенности : 4:2:0
Битовая глубина : 8 бит
Тип развёртки : Прогрессивная
Метод сжатия : С потерями
Бит/(Пиксели*Кадры) : 0.233
Размер потока : 573 Мбайт (92%)
Библиотека кодирования : XviD 1.2.1 (UTC 2008-12-04)

Аудио
Идентификатор : 1
Формат : MPEG Audio
Версия формата : Version 1
Профиль формата : Layer 3
Режим : Joint stereo
Расширение режима : MS Stereo
Идентификатор кодека : 55
Идентификатор кодека/Подсказка : MP3
Продолжительность : 47 м. 40 с.
Вид битрейта : Постоянный
Битрейт : 128 Кбит/сек
Каналы : 2 канала
Частота : 48,0 КГц
Метод сжатия : С потерями
Размер потока : 43,7 Мбайт (7%)
Выравнивание : Соединение по промежуткам
Продолжительность промежутка : 40 мс. (1,00 видеокадр)
Время предзагрузки промежутка : 504 мс.
Библиотека кодирования : LAME3.99r
Настройки программы : -m j -V 4 -q 9 -lowpass 17 -b 128

pb.wtf



Скачать Казнить нельзя помиловать через торрент http://i98.fastpic.ru/big/2017/1130/6a/817d74ccbcc56ae4ed2baf6ec3d4726a.jpg Скачать фильм Казнить нельзя помиловать через торрент бесплантно в хорошем качестве Описание: Бывшая разведчица Нина Колосова после войны оказывается в Ленинграде, где царят преступность и криминал. Любимого мужа Нины, ... 10 10 29
Торрент: Зарегистрирован [2017-12-05 21:28] · скачан: 749 раз
Статус: √ проверено
Размер: 7.5 GB
Как cкачать? Как скачать Казнить нельзя помиловать через торрент | qTorrent

% Раздел Тема Автор DL S | L
Наши сериалы [ 15.27 GB ] Казнить нельзя помиловать / Сезон: 1 / Серии: 1-12 из 12 [2017 История HDTVRip 720p] bober100 Скачать
1 | 0
Наши сериалы [ 8.94 GB ] Казнить нельзя помиловать / Сезон: 1 / Серии: 1-12 из 12 [2017 История HDTVRip-AVC] bober100 Скачать
1 | 0
Наши сериалы [ 25.57 GB ] Казнить нельзя помиловать / Сезон: 1 / Серии: 1-12 из 12 [2017 История WEBRip 1080p] bober100 Скачать
1 | 0
Наши сериалы [ 13.25 GB ] Казнить нельзя помиловать / Сезон: 1 / Серии: 1-12 из 12 [2017 исторический WEB-DL 720p] bober100 Скачать
1 | 0


Последний раз редактировалось: bober100 (2020-01-11 20:25), всего редактировалось 1 раз

28-11-2019 20:33  

Отключить всю рекламу на сайте

05-12-2017 22:19 Казнить нельзя помиловать Скачать торрент  

Вот, Спасибо!pb.wtf



10-01-2018 16:18 Казнить нельзя помиловать Скачать торрент  

Мощь!!!pb.wtf



    Дорогой пользователь! Огромная просьба, поблагодарите релизера, оцените раздачу и оставьте свои комментарий, если Вы скачали Казнить нельзя помиловать через торрент бесплатно! Внесите свою лепту в развитие PiratBit!
    Комментировать посты могут только пользователи прошедшие не сложную регистрацию
    Показать сообщения:    

    Казнить нельзя помиловать через торрент
    Скачать бесплатно Казнить нельзя помиловать
    Казнить нельзя помиловать скачать торрент
    Казнить нельзя помиловать смотреть онлайн
    Cкачать фильм Казнить нельзя помиловать бесплатно
    Казнить нельзя помиловать скачать торрент в хорошем качестве
    Казнить нельзя помиловать смотреть онлайн бесплатно в хорошем качестве


    Вы не можете начинать темы
    Вы не можете отвечать на сообщения
    Вы не можете редактировать свои сообщения
    Вы не можете удалять свои сообщения
    Вы не можете голосовать в опросах
    Вы не можете прикреплять файлы к сообщениям
    Вы можете скачивать файлы