Ссылка на приватное зеркало всего за 1$. Внимание количество ограничено!!!

iTunes

iTunes

iTunes

1

iTunes

iTunes

iTunes

iTunes

iTunes

30
pack

$ от Little Big

ВАЖНО

!!Акция!!

Alien_RageХит недели

RePack

Resident Evil 21

ИГРА 18+

pack

RePack

jed

!!Акция!!

Alien_Rage

RePack

fifa19

RePack

Assassins Creed: Odyssey

RePack

NEED FOR SPEED™ PAYBACK

4 сезон

9 сезон

Бесстыжие 9 сезон

Все сериалы

все сериалы на PB.wtf

RePack

FAR CRY 5
  

мама! / mother! (Даррен Аронофски) [2017, драма, ужасы, детектив, WEB-DL 1080p] DUB [iTunes] pb.wtf

мама! через торрент pb.wtf

Раздают: 3 [ 0 KB/s ]
Размер: 4.55 GB | Добавлен: 2 года 7 мес. назад | Торрент скачан:1604 раза
Скачать  

06-12-2017 04:23 мама! Скачать торрент  

мама! / mother!Год выпуска: 2017
Страна: США
Жанр: драма, ужасы, детектив
Продолжительность: 02:03:32
Перевод: Дубляж [iTunes]
Субтитры: Русские, английские

Режиссер: Даррен Аронофски

rating

В ролях:

Дженнифер Лоуренс, Хавьер Бардем, Эд Харрис, Мишель Пфайффер, Брин Глисон, Донал Глисон, Йован Адепо, Патриция Саммерсетт, Эрик Дэвис

Описание:

Отношения молодой пары оказываются под угрозой, когда, нарушая безмятежное существование супругов, в их дом заявляются незваные гости.

Качество: WEB-DL 1080p
Формат: MKV
Видео кодек: H.264
Аудио кодек: AC3

Видео: 1920x804 at 23.976 fps, MPEG-4 AVC, ~4588 kbps avg
Аудио#1: Russian: 48 kHz, AC3, 3/2 (L,C,R,l,r) + LFE ch, ~384.00 kbps avg
Аудио#2: English: 48 kHz, AC3, 3/2 (L,C,R,l,r) + LFE ch, ~384.00 kbps avg
скриншот   скриншот   скриншот   скриншот   скриншот  

Общее
Уникальный идентификатор : 217774672320595422113212912032845032541 (0xA3D5E05241AD008CBA83B7FAB8066C5D)
Полное имя : D:\mother.2017.1080p.WEB-DL.Rus.Eng.mkv
Формат : Matroska
Версия формата : Version 2
Размер файла : 4,55 Гбайт
Продолжительность : 2 ч. 1 м.
Общий поток : 5354 Кбит/сек
Дата кодирования : UTC 2017-12-05 21:16:22
Программа кодирования : mkvmerge v8.3.0 ('Over the Horizon') 64bit
Библиотека кодирования : libebml v1.3.1 + libmatroska v1.4.2

Видео
Идентификатор : 1
Формат : AVC
Формат/Информация : Advanced Video Codec
Профиль формата : High@L4
Параметр CABAC формата : Да
Параметр ReFrames формата : 5 кадров
Идентификатор кодека : V_MPEG4/ISO/AVC
Продолжительность : 2 ч. 1 м.
Битрейт : 4588 Кбит/сек
Ширина : 1920 пикселей
Высота : 804 пикселя
Соотношение сторон : 2,40:1
Режим частоты кадров : Постоянный
Частота кадров : 23,976 (23976/1000) кадра/сек
Цветовое пространство : YUV
Субдискретизация насыщенности : 4:2:0
Битовая глубина : 8 бит
Тип развёртки : Прогрессивная
Бит/(Пиксели*Кадры) : 0.124
Размер потока : 3,90 Гбайт (86%)
Язык : English
Default : Да
Forced : Нет
Цветовой диапазон : Limited
Основные цвета : BT.709
Характеристики трансфера : BT.709
Коэффициенты матрицы : BT.709

Аудио #1
Идентификатор : 2
Формат : AC-3
Формат/Информация : Audio Coding 3
Расширение режима : CM (complete main)
Параметр Endianness формата : Big
Идентификатор кодека : A_AC3
Продолжительность : 2 ч. 1 м.
Вид битрейта : Постоянный
Битрейт : 384 Кбит/сек
Каналы : 6 каналов
Расположение каналов : Front: L C R, Side: L R, LFE
Частота : 48,0 КГц
Частота кадров : 31,250 кадров/сек (1536 spf)
Метод сжатия : С потерями
Размер потока : 333 Мбайт (7%)
Язык : Russian
Default : Да
Forced : Нет

Аудио #2
Идентификатор : 3
Формат : AC-3
Формат/Информация : Audio Coding 3
Расширение режима : CM (complete main)
Параметр Endianness формата : Big
Идентификатор кодека : A_AC3
Продолжительность : 2 ч. 1 м.
Вид битрейта : Постоянный
Битрейт : 384 Кбит/сек
Каналы : 6 каналов
Расположение каналов : Front: L C R, Side: L R, LFE
Частота : 48,0 КГц
Частота кадров : 31,250 кадров/сек (1536 spf)
Метод сжатия : С потерями
Размер потока : 333 Мбайт (7%)
Язык : English
Default : Нет
Forced : Нет

Текст #1
Идентификатор : 4
Формат : UTF-8
Идентификатор кодека : S_TEXT/UTF8
Идентификатор кодека/Информация : UTF-8 Plain Text
Продолжительность : 2 ч. 0 м.
Битрейт : 56 бит/сек
Count of elements : 1164
Размер потока : 49,3 Кбайт (0%)
Язык : Russian
Default : Нет
Forced : Нет

Текст #2
Идентификатор : 5
Формат : UTF-8
Идентификатор кодека : S_TEXT/UTF8
Идентификатор кодека/Информация : UTF-8 Plain Text
Продолжительность : 1 ч. 54 м.
Битрейт : 38 бит/сек
Count of elements : 1282
Размер потока : 32,4 Кбайт (0%)
Язык : English
Default : Нет
Forced : Нет

Меню
00:00:00.000 : en:1
00:06:21.000 : en:2
00:10:19.000 : en:3
00:15:57.000 : en:4
00:21:35.000 : en:5
00:24:57.000 : en:6
00:31:28.000 : en:7
00:38:26.000 : en:8
00:44:53.000 : en:9
00:49:31.000 : en:10
00:53:39.000 : en:11
01:02:15.000 : en:12
01:08:19.000 : en:13
01:16:46.000 : en:14
01:20:25.000 : en:15
01:28:20.000 : en:16
01:38:02.000 : en:17
01:45:45.000 : en:18
01:49:41.000 : en:19
01:56:13.000 : en:20
pb.wtf



Скачать мама! через торрент http://img12.lostpic.net/2017/12/06/fab7b6bc9ddd8ae189295a0042ce061d.png Скачать фильм мама! через торрент бесплантно в хорошем качестве Описание: Отношения молодой пары оказываются под угрозой, когда, нарушая безмятежное существование супругов, в их дом заявляются незваные ... 9.6 10 30
Info! Золотая раздача, скачанное не засчитывается.
Торрент: Зарегистрирован [2017-12-06 04:23] · скачан: 1 604 раз
Статус: √ проверено
Размер: 4.55 GB
Как cкачать? Как скачать мама! через торрент | qTorrent

% Раздел Тема Автор DL S | L
Гонзо [ 1.3 GB ] Мама Лучше Знает II / Mother Knows Best II [2020 All Sex Big Cocks Family Roleplay MILF WEB-DL] bashai5 Скачать
2 | 0
Порно фильмы с сюжетом [ 1.36 GB ] Мамы Умеют Хранить Секреты / Mothers Keeping Secrets [2019 All Sex Family Roleplay Mature MILF WEB-DL] bashai5 Скачать
1 | 0
T Фильмы (мультфильмы) cо спонсором показа (Новинки AVI/MKV) [ 3.72 GB ] Задушен мамашами / Smothered by Mothers [2019 WEB-DL 720p] MVO [AlphaProject] bober100 Скачать
1 | 0
T Фильмы (мультфильмы) cо спонсором показа (Новинки AVI/MKV) [ 1.37 GB ] Задушен мамашами / Smothered by Mothers [2019 WEB-DLRip] MVO [AlphaProject] bober100 Скачать
1 | 0
Ultra HD (UHD: 2K, 4K, 8K) — видео сверхвысокой чёткости [ 51.56 GB ] мама! / mother! [2017 UHD Remux 2160p] [HDR] 3xAVO+DUB [] bober100 Скачать
1 | 1
Зарубежные сериалы [ 6.29 GB ] Как я встретил вашу маму / How I Met Your Mother / Сезон: 1 / Серии: 1-22 из 22 [2005 DVDRip] Cherepp Скачать
1 | 0
T Фильмы (мультфильмы) cо спонсором показа (Новинки AVI/MKV) [ 2.88 GB ] Я убила маму? / Did I Kill My Mother? [2018 WEBRip 720p] MVO ["Синема УС"] bober100 Скачать
1 | 0

28-11-2019 20:33  

Отключить всю рекламу на сайте

06-12-2017 09:31 мама! Скачать торрент  

не понравилось.херня .лоуренс тупая дура .pb.wtf



06-12-2017 17:18 мама! Скачать торрент  

kpuctaluk писал(а):

не понравилось.херня .лоуренс тупая дура .

Просто ты еще не дорос до фильмов со смысломpb.wtf



07-12-2017 11:19 мама! Скачать торрент  

жесткий фильмак, однозначно смотреть)))pb.wtf



09-12-2017 11:00 мама! Скачать торрент  

Фильм хорош, но не для малолеток.pb.wtf



09-12-2017 16:12 мама! Скачать торрент  

зацикленный бредpb.wtf



14-12-2017 12:35 мама! Скачать торрент  

неплохой фильм, если бы не лоуренс..pb.wtf



14-12-2017 16:27 мама! Скачать торрент  

Поклонники трансформеров мимо))) фильм супер!!!! Арт-хаус чистой воды!!!! Фильм супер!!!!!!pb.wtf



14-12-2017 16:28 мама! Скачать торрент  

mexxman писал(а):

kpuctaluk писал(а):

не понравилось.херня .лоуренс тупая дура .

Просто ты еще не дорос до фильмов со смыслом

pb.wtf



15-12-2017 19:24 мама! Скачать торрент  

3/10pb.wtf



15-12-2017 19:25 мама! Скачать торрент  

Это арт-хаус перенесите в соответствующий раздел.pb.wtf



17-12-2017 04:37 мама! Скачать торрент  

Фильм хороший ! Фильм для тех кто способен переваривать и понимаь что то большее чем сексо-пердежный юмор,бесконечно-"бессмертные" пострелушки,мясо-рвотные хорроры и тому подобный трэш вроде марвелов которые смотришь чаще чем куришь...Фильм не для всех.Фильм не шедевр.Но этот фильм стоит посмотреть !
Уточню,для тех кто хэйтит этот и подобные фильмы что трансформеры (они же человеки-пауки или американские пироги какие нибудь) и кинематограф-это абсолютно разные и ничем не относящиеся друг другу вещи !!!!!!!pb.wtf



18-12-2017 15:36 мама! Скачать торрент  

У кого с психикой норм, не смотреть.pb.wtf



    Дорогой пользователь! Огромная просьба, поблагодарите релизера, оцените раздачу и оставьте свои комментарий, если Вы скачали мама! через торрент бесплатно! Внесите свою лепту в развитие PiratBit!
    Комментировать посты могут только пользователи прошедшие не сложную регистрацию
    Показать сообщения:    

    мама! через торрент
    Скачать бесплатно мама!
    мама! скачать торрент
    мама! смотреть онлайн
    Cкачать фильм мама! бесплатно
    мама! скачать торрент в хорошем качестве
    мама! смотреть онлайн бесплатно в хорошем качестве


    Вы не можете начинать темы
    Вы не можете отвечать на сообщения
    Вы не можете редактировать свои сообщения
    Вы не можете удалять свои сообщения
    Вы не можете голосовать в опросах
    Вы не можете прикреплять файлы к сообщениям
    Вы можете скачивать файлы