Всегда рабочее зеркало без VPN и Proxy просто перед .vidak.icu напиши любое слово или цифру, Пример http://8tm9.vidak.icu

MVO

2 сезон

1 сезон

1

1 сезон

iTunes

2 сезон

13

1 сезон

Распродажа

pack

Рекомендуем

Пиратка

30

ВАЖНО

RePack

MK11

RePack

jed

RePack

fifa19

RePack

RDR2

RePack

NEED FOR SPEED™ PAYBACK

Кинопоиск HD

6 сезон

 Острые козырьки 6 сезон

Все сериалы

все сериалы на PB.wtf

RePack

FAR CRY 5

Anonymous, нам критически не хватает 5601 руб. на оплату серверов и переферии за Апрель, помоги нам пожалуйста, вся надежда только на тебя. В благодарность мы отключим тебе всю рекламу на сайте!

×
  
Magnet ссылка

Большой холод / Grand froid (Жерар Потоннье) [2017 г., Комедия, WEB-DLRip, Любительский (многоголосый)| Синема УС] pb.wtf

Большой холод через торрент pb.wtf

Размер: 1.35 GB | Добавлен: 4 года 5 мес. назад | Торрент скачан:262 раза
Смотреть онлайн Большой холод | Скачать    Ребята, помогите собрать деньги на оплату серверов!!!

06-12-2017 05:03 Большой холод Скачать торрент  

Большой холод / Grand froid
Год выпуска: 2017
Страна: Франция Бельгия Польша
Жанр: Комедия
Продолжительность: 01:24:07
Перевод: Любительский (многоголосый)| Синема УС
Субтитры: Нет

Режиссер: Жерар Потоннье

rating

В ролях: Жан-Пьер Бакри, Артур Дюпон, Оливье Гурме, Федор Аткин, Сэм Карманн, Филипп Дюкен, Мари Берто, Франсуаза Ориан

Описание: В богом забытом французском городишке скоро Рождество, но ритуальному агентству Эдмона Цвега не до веселья. Люди перестали умирать, а из потенциальных клиентов - лишь назойливая бабуля, и то в самом расцвете сил. Матерая компания на волоске от закрытия. Им может помочь только «жирный» клиент...

Доп. информация: Реклама есть

Качество: WEB-DLRip
Формат: AVI
Видео кодек: XviD
Аудио кодек: AC3
Видео: 720x304 (2.35:1), 23.976 fps, XviD ~1 906 kbps
Аудио#1: 48 kHz, AC3 Dolby Digital, 2/0 (L,R) ch, ~384 kbps
скриншот   скриншот   скриншот   скриншот  

General
Complete name : H:\релизы.торрентфайл\Grand.Froid.2017.P.WEB-DLRip.14OOMB_KOSHARA.avi
Format : AVI
Format/Info : Audio Video Interleave
File size : 1.35 GiB
Duration : 1h 24mn
Overall bit rate : 2 300 Kbps
Writing application : VirtualDubMod 1.5.10.2 (build 2540/release)
Writing library : VirtualDubMod build 2540/release

Video
ID : 0
Format : MPEG-4 Visual
Format profile : Advanced Simple@L5
Format settings, BVOP : 2
Format settings, QPel : No
Format settings, GMC : No warppoints
Format settings, Matrix : Default (MPEG)
Codec ID : XVID
Codec ID/Hint : XviD
Duration : 1h 24mn
Bit rate : 1 906 Kbps
Width : 720 pixels
Height : 304 pixels
Display aspect ratio : 2.35:1
Frame rate : 23.976 fps
Color space : YUV
Chroma subsampling : 4:2:0
Bit depth : 8 bits
Scan type : Progressive
Compression mode : Lossy
Bits/(Pixel*Frame) : 0.363
Stream size : 1.12 GiB (83%)
Writing library : XviD 1.2.1 (UTC 2008-12-04)

Audio
ID : 1
Format : AC-3
Format/Info : Audio Coding 3
Mode extension : CM (complete main)
Format settings, Endianness : Big
Codec ID : 2000
Duration : 1h 24mn
Bit rate mode : Constant
Bit rate : 384 Kbps
Channel(s) : 2 channels
Channel positions : Front: L R
Sampling rate : 48.0 KHz
Bit depth : 16 bits
Compression mode : Lossy
Stream size : 231 MiB (17%)
Alignment : Split accross interleaves
Interleave, duration : 42 ms (1.00 video frame)
Interleave, preload duration : 500 ms

pb.wtf



Скачать Большой холод через торрент https://pic1.kartinco.top/images/11/iwald.jpg Скачать, смотреть онлайн Большой холод бесплантно в хорошем качестве Описание: В богом забытом французском городишке скоро Рождество, но ритуальному агентству Эдмона Цвега не до веселья. Люди перестали ... 9.9 10 8
Торрент: Зарегистрирован [2017-12-06 05:03] · скачан: 262 раз
Статус: T временная
Размер: 1.35 GB
Как cкачать? Как скачать Большой холод через торрент | UTorrent

28-11-2019 20:33  

Отключить всю рекламу на сайте

06-12-2017 06:24 Большой холод Скачать торрент  

Топик был перенесен из форума Фильмы 2017 (Звук TS, Cam, VO, DVO) в форум Фильмы 2017 [DVDrip, WEB-DLRip, HDrip] (DUB, MVO)


-Lexx-pb.wtf



14-12-2017 17:24 Большой холод Скачать торрент  

    Дорогой пользователь! Огромная просьба, поблагодарите релизера, оцените раздачу и оставьте свои комментарий, если Вы скачали Большой холод через торрент бесплатно!
    Комментировать посты могут только пользователи прошедшие не сложную регистрацию
    Показать сообщения:    

    Большой холод через торрент
    Скачать бесплатно Большой холод
    Большой холод скачать торрент
    Большой холод смотреть онлайн
    Cкачать фильм Большой холод бесплатно
    Большой холод скачать торрент в хорошем качестве
    Большой холод смотреть онлайн бесплатно в хорошем качестве


    Вы не можете начинать темы
    Вы не можете отвечать на сообщения
    Вы не можете редактировать свои сообщения
    Вы не можете удалять свои сообщения
    Вы не можете голосовать в опросах
    Вы не можете прикреплять файлы к сообщениям
    Вы можете скачивать файлы