MEGA NEWS Получи личный уникальный адрес сайта и защити себя от блокировок. Внимание количество ограничено!!!

iTunes

1+1

iTunes

мы

iTunes

1

iTunes

Чернобыль

iTunes

Ральф против интернета

Лицензия

ПШазам

Лицензия

Игра престолов

Лицензия

30
pack

ВАЖНО

!!Акция!!

Alien_RageХит недели

RePack

Resident Evil 21

ИГРА 18+

pack

RePack

Metro:Exodus

!!Акция!!

Alien_Rage

RePack

fifa19

RePack

Assassins Creed: Odyssey

RePack

NEED FOR SPEED™ PAYBACK

3 сезон

9 сезон

Бесстыжие 9 сезон

Все сериалы

все сериалы на PB.wtf

RePack

FAR CRY 5
Ребята, катастрофически не хватает 1900р. для оплаты серверов за АВГУСТ (всвязи с блокировками трафик упал в 3 раза), 1-2р., выручайте.
  

Зеленый сойлент / Soylent Green (Ричард Флейшер) [1973 г., фантастика, триллер, криминал, детектив, BDRip-AVC] DVO, AVO pb.wtf

Зеленый сойлент через торрент pb.wtf

Размер: 2.18 GB | Добавлен: 1 год 10 мес. назад | Торрент скачан:14 раз
Скачать  

06-12-2017 16:55 Зеленый сойлент Скачать торрент  

Зеленый сойлент / Soylent Green
Год выпуска: 1973
Страна: США
Жанр: фантастика, триллер, криминал, детектив
Продолжительность: 01:36:59
Перевод: Профессиональный (двухголосый), авторский (Алексеев)
Субтитры: Русские, английские

Режиссер: Ричард Флейшер

rating

В ролях: Чарлтон Хестон, Ли Тейлор-Янг, Чак Коннорс, Джозеф Коттен, Брок Питерс, Паула Келли, Эдвард Дж. Робинсон, Стивен Янг, Майк Генри, Линкольн Килпэтрик

Описание: 2022 год. Земля перенаселена, в одном только Нью-Йорке проживает более 40 миллионов человек. Загрязнение окружающей среды привело к парниковому эффекту, в результате чего исчезли большая часть водных ресурсов, животные и растительность. Дабы хоть как-то накормить людей, корпорация «Сойлент» производит некий питательный продукт в виде разноцветных брикетов. Расследование неожиданного убийства члена правления корпорации приводит полицейского детектива Торна на фабрику, где он узнаёт страшную тайну «зелёного сойлента»…

Качество: BDRip-AVC (Soylent.Green.1973.1080p.Bluray.AVC.Remux)
Формат: MKV
Видео: MPEG-4 AVC, 2642 Кбит/с, 1024х428, 23.976 кадр/с
Аудио #1: AC3, 2 ch, 192 Кбит/с | Профессиональный двухголосый (НТВ+)
Аудио #2: AC3, 2 ch, 192 Кбит/с | Aвторский (Антон Алексеев)
Аудио #3: AC3, 1 ch, 192 Кбит/с | Aнглийский
Релиз от: Koenig
скриншот   скриншот   скриншот   скриншот   скриншот   скриншот  

Общее
Уникальный идентификатор : 252156175279724337863013136546901568177 (0xBDB3834B02FEFE07A67E581FF260AAB1)
Полное имя : Soylent.Green.1973.BDRip-AVC.mkv
Формат : Matroska
Версия формата : Version 4 / Version 2
Размер файла : 2,18 Гбайт
Продолжительность : 1 ч. 36 м.
Общий поток : 3215 Кбит/сек
Название фильма : Soylent.Green.1973.BDRip-AVC by Koenig
Дата кодирования : UTC 2017-11-27 17:38:56
Программа кодирования : mkvmerge v12.0.0 ('Trust / Lust') 32bit
Библиотека кодирования : libebml v1.3.4 + libmatroska v1.4.5
Обложка : Yes
Attachments : cover.jpg

Видео
Идентификатор : 1
Формат : AVC
Формат/Информация : Advanced Video Codec
Профиль формата : High@L4.1
Параметр CABAC формата : Да
Параметр ReFrames формата : 11 кадров
Идентификатор кодека : V_MPEG4/ISO/AVC
Продолжительность : 1 ч. 36 м.
Битрейт : 2642 Кбит/сек
Ширина : 1024 пикселя
Высота : 428 пикселей
Соотношение сторон : 2,40:1
Соотношение сторон в оригинале : 2,40:1
Режим частоты кадров : Постоянный
Частота кадров : 23,976 (24000/1001) кадра/сек
Цветовое пространство : YUV
Субдискретизация насыщенности : 4:2:0
Битовая глубина : 8 бит
Тип развёртки : Прогрессивная
Бит/(Пиксели*Кадры) : 0.251
Размер потока : 1,79 Гбайт (82%)
Заголовок : Soylent.Green.1973.BDRip-AVC
Библиотека кодирования : x264 core 152 r2851 ba24899
Настройки программы : cabac=1 / ref=11 / deblock=1:-3:-3 / analyse=0x3:0x133 / me=umh / subme=10 / psy=1 / psy_rd=1.05:0.08 / mixed_ref=1 / me_range=32 / chroma_me=1 / trellis=2 / 8x8dct=1 / cqm=0 / deadzone=21,11 / fast_pskip=0 / chroma_qp_offset=-3 / threads=3 / lookahead_threads=1 / sliced_threads=0 / nr=0 / decimate=1 / interlaced=0 / bluray_compat=0 / constrained_intra=0 / bframes=11 / b_pyramid=2 / b_adapt=2 / b_bias=0 / direct=3 / weightb=1 / open_gop=0 / weightp=2 / keyint=240 / keyint_min=23 / scenecut=40 / intra_refresh=0 / rc_lookahead=40 / rc=2pass / mbtree=1 / bitrate=2642 / ratetol=1.0 / qcomp=0.60 / qpmin=10 / qpmax=51 / qpstep=4 / cplxblur=20.0 / qblur=0.5 / vbv_maxrate=50000 / vbv_bufsize=62500 / nal_hrd=none / filler=0 / ip_ratio=1.40 / aq=1:1.00
Язык : English
Default : Да
Forced : Нет

Аудио #1
Идентификатор : 2
Формат : AC-3
Формат/Информация : Audio Coding 3
Параметр Endianness формата : Big
Идентификатор кодека : A_AC3
Продолжительность : 1 ч. 36 м.
Вид битрейта : Постоянный
Битрейт : 192 Кбит/сек
Каналы : 2 канала
Расположение каналов : Front: L R
Частота : 48,0 КГц
Частота кадров : 31,250 кадров/сек (1536 spf)
Битовая глубина : 16 бит
Метод сжатия : С потерями
Размер потока : 133 Мбайт (6%)
Заголовок : DVO - НТВ+
Язык : Russian
ServiceKind/String : Complete Main
Default : Да
Forced : Нет

Аудио #2
Идентификатор : 3
Формат : AC-3
Формат/Информация : Audio Coding 3
Параметр Endianness формата : Big
Идентификатор кодека : A_AC3
Продолжительность : 1 ч. 36 м.
Вид битрейта : Постоянный
Битрейт : 192 Кбит/сек
Каналы : 2 канала
Расположение каналов : Front: L R
Частота : 48,0 КГц
Частота кадров : 31,250 кадров/сек (1536 spf)
Битовая глубина : 16 бит
Метод сжатия : С потерями
Размер потока : 133 Мбайт (6%)
Заголовок : AVO - Антон Алексеев
Язык : Russian
ServiceKind/String : Complete Main
Default : Нет
Forced : Нет

Аудио #3
Идентификатор : 4
Формат : AC-3
Формат/Информация : Audio Coding 3
Параметр Endianness формата : Big
Идентификатор кодека : A_AC3
Продолжительность : 1 ч. 36 м.
Вид битрейта : Постоянный
Битрейт : 192 Кбит/сек
Каналы : 1 канал
Расположение каналов : Front: C
Частота : 48,0 КГц
Частота кадров : 31,250 кадров/сек (1536 spf)
Битовая глубина : 16 бит
Метод сжатия : С потерями
Размер потока : 133 Мбайт (6%)
Заголовок : Original
Язык : English
ServiceKind/String : Complete Main
Default : Нет
Forced : Нет

Текст #1
Идентификатор : 5
Формат : UTF-8
Идентификатор кодека : S_TEXT/UTF8
Идентификатор кодека/Информация : UTF-8 Plain Text
Продолжительность : 1 ч. 34 м.
Битрейт : 68 бит/сек
ElementCount : 854
Размер потока : 47,3 Кбайт (0%)
Язык : Russian
Default : Да
Forced : Нет

Текст #2
Идентификатор : 6
Формат : UTF-8
Идентификатор кодека : S_TEXT/UTF8
Идентификатор кодека/Информация : UTF-8 Plain Text
Продолжительность : 1 ч. 34 м.
Битрейт : 41 бит/сек
ElementCount : 937
Размер потока : 28,6 Кбайт (0%)
Язык : English
Default : Нет
Forced : Нет

Меню
00:00:00.000 : en:World Gone Mad
00:02:26.938 : en:When Food Was Food
00:07:05.716 : en:Shopping
00:09:51.674 : en:Necessary Death
00:12:42.636 : en:Thorn on the Case
00:17:23.792 : en:Thinking of Shirl
00:21:14.189 : en:Great Man's Leavings
00:24:46.902 : en:Thorn's Report
00:28:14.109 : en:Fielding's Place
00:33:14.617 : en:Fine Dining
00:35:58.030 : en:Very Important Man
00:38:32.768 : en:Connections and Friend
00:42:29.755 : en:Keep It Friendly
00:47:32.975 : en:Luxurious Invitation
00:50:39.244 : en:Truth Destroying Me
00:53:59.486 : en:Involved in High Places
00:57:07.841 : en:Riot Control
01:00:02.807 : en:Killer's Target
01:02:04.554 : en:Get Off My Back
01:04:17.061 : en:No Place to Go
01:07:13.821 : en:Where God Is
01:08:37.279 : en:New Tenant
01:09:46.015 : en:Sol Goes Home
01:13:42.251 : en:Parting Words
01:19:01.695 : en:Hidden Passenger
01:22:39.412 : en:Final Product
01:26:52.790 : en:Shooting to Kill
01:30:09.028 : en:It's People
01:34:00.760 : en:End Credits.
01:36:48.677 : en:

pb.wtf



Скачать Зеленый сойлент через торрент http://pic1.kartinco.top/images/11/bra27.jpg Скачать фильм Зеленый сойлент через торрент бесплантно в хорошем качестве Описание: 2022 год. Земля перенаселена, в одном только Нью-Йорке проживает более 40 миллионов человек. Загрязнение окружающей среды привело ... 5 10 1
Торрент: Зарегистрирован [2017-12-06 16:55] · скачан: 14 раз
Статус: √ проверено
Размер: 2.18 GB
Как cкачать? Как скачать Зеленый сойлент через торрент | qTorrent


>> Регистрируемся здесь <<






Отзывы и комментарии о схеме читаем и пишем здесь: ---> Отзывы и комментарии о схеме

Новые благодарочки в телеграм довольных пользователей:
скриншот   скриншот   скриншот   скриншот   скриншот
    Дорогой пользователь! Огромная просьба, поблагодарите релизера, оцените раздачу и оставьте свои комментарий, если Вы скачали Зеленый сойлент через торрент бесплатно! Внесите свою лепту в развитие PiratBit!
    Комментировать посты могут только пользователи прошедшие не сложную регистрацию
    Показать сообщения:    

    Зеленый сойлент через торрент
    Скачать бесплатно Зеленый сойлент
    Зеленый сойлент скачать торрент
    Зеленый сойлент смотреть онлайн
    Cкачать фильм Зеленый сойлент бесплатно
    Зеленый сойлент скачать торрент в хорошем качестве
    Зеленый сойлент смотреть онлайн бесплатно в хорошем качестве


    Вы не можете начинать темы
    Вы не можете отвечать на сообщения
    Вы не можете редактировать свои сообщения
    Вы не можете удалять свои сообщения
    Вы не можете голосовать в опросах
    Вы не можете прикреплять файлы к сообщениям
    Вы можете скачивать файлы