Ссылка на приватное зеркало нашего сайта всего за 1$. Внимание количество ограничено!!!

2 сезон

iTunes

1 сезон

1

iTunes

iTunes

iTunes

1 сезон

RePack

30

ИГРА 18+

pack

ВАЖНО

!!Акция!!

Alien_RageХит недели

RePack

MK11
pack

Забери бонус

RePack

jed

!!Акция!!

Alien_Rage

RePack

fifa19

RePack

Assassins Creed: Odyssey

RePack

NEED FOR SPEED™ PAYBACK

4 сезон

9 сезон

Бесстыжие 9 сезон

Все сериалы

все сериалы на PB.wtf

RePack

FAR CRY 5
  

Хождение по мукам / Серии 1-12 из 12 (Константин Худяков) [2017, Драма, экранизация, WEB-DL 1080p] pb.wtf

Хождение по мукам через торрент pb.wtf

Размер: 26.26 GB | Добавлен: 2 года 10 мес. назад | Торрент скачан:102 раза
Скачать  

06-12-2017 17:33 Хождение по мукам Скачать торрент  

Хождение по мукамГод выпуска: 2017
Страна: Россия
Жанр: Драма, экранизация
Продолжительность: 12 x ~ 00:50:00
Субтитры: отсутствуют

Режиссер: Константин Худяков



В ролях:

Юлия Снигирь, Анна Чиповская, Павел Трубинер, Леонид Бичевин, Антон Шагин, Андрей Мерзликин, Светлана Ходченкова, Алексей Колган, Александр Яценко, Евгений Стычкин, Владимир Кошевой, Александр Галибин, Сергей Колтаков, Владимир Юматов, Евгений Ткачук, Дмитрий Дюжев, Сергей Пускепалис, Андрей Чернышов, Игнатий Акрачков, Сергей Угрюмов, Нина Дворжецкая, Никита Кукушкин, Роман Курцын, Роман Мадянов, Алексей Кирсанов, Иван Кокорин, Елена Валюшкина, Юлия Полынская

Описание:

Великий роман Алексея Толстого «Хождение по мукам» повествует о переломных для России событиях 1914–1919 годов. Легендарное произведение о судьбах русской интеллигенции накануне Революции стало основой нового сериала от сценариста Елены Райской и режиссера Константина Худякова, который появится в эфире в октябре 2017 года. Санкт-Петербург, 1914 год. Город живёт «словно в ожидании рокового и страшного дня», общество жаждет перемен. В центре истории — сёстры Булавины: Катя и Даша. Обе девушки влюблены в поэта-декадента Алексея Бессонова, который меняет их мировоззрение и привычный образ жизни. Первая мировая вносит в беззаботное существование Булавиных-Смоковниковых новые смыслы и переживания. Когда война подходит к концу, кажется, счастье близко… Однако революция и гражданская война полностью меняют жизнь сестёр, их семей и всей страны. Пути героев не раз пересекаются и расходятся вновь. «Хождение по мукам» становится для них не метафорой, а реальной жизнью.

Качество: WEB-DL 1080p
Формат: MKV
Видео кодек: H.264
Аудио кодек: AC3

Видео: 1920х1080 (16:9), 25 fps, AVC MPEG-4 (x264), High@L4.0 ~ 6000 kbps avg, 0.152 bit/pixel
Аудио: 48 kHz, MPEG Layer 2, 2 ch, ~ 192 kbps avg
скриншот   скриншот   скриншот   скриншот  

Общее
Уникальный идентификатор : 79162774338617383909635168045717407179 (0x3B8E321D316EA0BD1362868F321E45CB)
Полное имя : D:\Hozhdenie.po.mukam.2017.WEB-DL.(1080p).Nikolspup\Hozhdenie.po.mukam.(01.seriya.iz.12).2017.WEB-DL.(1080p).Nikolspup.mkv
Формат : Matroska
Версия формата : Version 2
Размер файла : 2,21 Гбайт
Продолжительность : 52 м. 21 с.
Режим общего битрейта : Постоянный
Общий поток : 6047 Кбит/сек
Программа кодирования : Lavf54.63.104
Библиотека кодирования : Lavf54.63.104 / Lavf54.63.104

Видео
Идентификатор : 1
Формат : AVC
Формат/Информация : Advanced Video Codec
Профиль формата : High@L4.1
Параметр CABAC формата : Нет
Параметр ReFrames формата : 2 кадра
Идентификатор кодека : V_MPEG4/ISO/AVC
Продолжительность : 52 м. 21 с.
Вид битрейта : Постоянный
Битрейт : 6000 Кбит/сек
Ширина : 1920 пикселей
Высота : 1080 пикселей
Соотношение сторон : 16:9
Режим частоты кадров : Постоянный
Частота кадров : 25,000 кадров/сек
Стандарт вещания : PAL
Цветовое пространство : YUV
Субдискретизация насыщенности : 4:2:0
Битовая глубина : 8 бит
Тип развёртки : Прогрессивная
Бит/(Пиксели*Кадры) : 0.116
Размер потока : 2,10 Гбайт (95%)
Default : Нет
Forced : Нет
Цветовой диапазон : Limited
Основные цвета : BT.709
Характеристики трансфера : BT.709
Коэффициенты матрицы : BT.709

Аудио
Идентификатор : 2
Формат : AC-3
Формат/Информация : Audio Coding 3
Расширение режима : CM (complete main)
Параметр Endianness формата : Big
Идентификатор кодека : A_AC3
Продолжительность : 52 м. 21 с.
Вид битрейта : Постоянный
Битрейт : 192 Кбит/сек
Каналы : 2 канала
Расположение каналов : Front: L R
Частота : 48,0 КГц
Частота кадров : 31,250 кадров/сек (1536 spf)
Метод сжатия : С потерями
Размер потока : 71,9 Мбайт (3%)
Язык : Russian
Default : Да
Forced : Нет

pb.wtf



Скачать Хождение по мукам через торрент http://i98.fastpic.ru/big/2017/1127/c2/8039f815922cef572afbb7916943a2c2.jpg Скачать фильм Хождение по мукам через торрент бесплантно в хорошем качестве Описание: Великий роман Алексея Толстого «Хождение по мукам» повествует о переломных для России событиях 1914–1919 годов. Легендарное ... 10 10 4
Info! Золотая раздача, скачанное не засчитывается.
Торрент: Зарегистрирован [2017-12-06 17:33] · скачан: 102 раз
Статус: √ проверено
Размер: 26.26 GB
Как cкачать? Как скачать Хождение по мукам через торрент | qTorrent

% Раздел Тема Автор DL S | L
Наши сериалы [ 9.41 GB ] Хождение по мукам / Сезон: 1 / Серии: 1-12 из 12 [2017 экранизация WEB-DLRip-AVC] bober100 Скачать
1 | 0
Наши сериалы [ 7.6 GB ] Хождение по мукам / Сезон: 1 / Серии: 1-12 из 12 [2017 экранизация WEB-DLRip] bober100 Скачать
1 | 0
Наши сериалы [ 8.12 GB ] Хождение по мукам / Серия 1-12 из 12 [2017 экранизация SATRip] oleg8 Скачать
1 | 0
Наши сериалы [ 7.19 GB ] Хождение по мукам / Серии: 1-12 из 12 [2017 экранизация SATRip-AVC] aleksan55 Скачать
1 | 0

28-11-2019 20:33  

Отключить всю рекламу на сайте

    Дорогой пользователь! Огромная просьба, поблагодарите релизера, оцените раздачу и оставьте свои комментарий, если Вы скачали Хождение по мукам через торрент бесплатно! Внесите свою лепту в развитие PiratBit!
    Комментировать посты могут только пользователи прошедшие не сложную регистрацию
    Показать сообщения:    

    Хождение по мукам через торрент
    Скачать бесплатно Хождение по мукам
    Хождение по мукам скачать торрент
    Хождение по мукам смотреть онлайн
    Cкачать фильм Хождение по мукам бесплатно
    Хождение по мукам скачать торрент в хорошем качестве
    Хождение по мукам смотреть онлайн бесплатно в хорошем качестве


    Вы не можете начинать темы
    Вы не можете отвечать на сообщения
    Вы не можете редактировать свои сообщения
    Вы не можете удалять свои сообщения
    Вы не можете голосовать в опросах
    Вы не можете прикреплять файлы к сообщениям
    Вы можете скачивать файлы