Ссылка на приватное зеркало всего за 1$. Внимание количество ограничено!!!

iTunes

iTunes

iTunes

1

iTunes

iTunes

iTunes

iTunes

iTunes

30
pack

$ от Little Big

ВАЖНО

!!Акция!!

Alien_RageХит недели

RePack

Resident Evil 21

ИГРА 18+

pack

RePack

jed

!!Акция!!

Alien_Rage

RePack

fifa19

RePack

Assassins Creed: Odyssey

RePack

NEED FOR SPEED™ PAYBACK

4 сезон

9 сезон

Бесстыжие 9 сезон

Все сериалы

все сериалы на PB.wtf

RePack

FAR CRY 5
  

Сторожевая застава (Юрий Ковалев) [2017, приключения, фэнтези, WEB-DL 1080p] DUB (rus) +ukr [iTunes] pb.wtf

Сторожевая застава через торрент pb.wtf

Размер: 4.13 GB | Добавлен: 2 года 7 мес. назад | Торрент скачан:2153 раза
Скачать  

06-12-2017 23:08 Сторожевая застава Скачать торрент  

Сторожевая заставаГод выпуска: 2017
Страна: Украина
Жанр: приключения, фэнтези
Продолжительность: 01:51:05
Перевод: Дублированный (iTunes)
Субтитры: отсутствуют

Режиссер: Юрий Ковалев

rating

В ролях:

Даниил Каменский, Ева Кошевая, Роман Луцкий, Олег Волощенко, Георгий Деревянский, Слава Красовская, Наталья Сумская, Александр Комаров, Ержан Нурымбет, Ерболат Тогузаков

Описание:

Солнечное затмение активизирует магический временной портал, и обычный школьник Виктор из XXI века попадает на тысячу лет назад. В юном Олежке, могучем Илье и суровом Добрыне Витя без труда узнает былинных богатырей. Их жизнь проходит в сражениях с половцами, которые любой ценой, с помощью и оружия, и черной магии, пытаются уничтожить русичей. Витя оказывается в самом центре невероятных событий, вступает в битву с мифическим существами и обретает настоящее мужество.

Качество: WEB-DL 1080p
Формат: MKV
Видео кодек: H.264
Аудио кодек: AC3

Видео: MPEG-4 AVC, 4 552 Кбит/с, 1920x804
Аудио#1: Русский (АС3, 6 ch, 384 Кбит/с)
Аудио#2: украинский (АС3, 6 ch, 384 Кбит/с)
скриншот   скриншот   скриншот  

Общее
Уникальный идентификатор : 227267629551022483874403911042723322700 (0xAAFA273F99D15A288ADBC750FFA99B4C)
Полное имя : D:\Ct0P0zh3Baya.3aCtaBa.2O17.D.WEB-DL.1O8Op.mkv
Формат : Matroska
Версия формата : Version 2
Размер файла : 4,13 Гбайт
Продолжительность : 1 ч. 51 м.
Общий поток : 5322 Кбит/сек
Дата кодирования : UTC 2017-12-06 17:33:51
Программа кодирования : mkvmerge v8.3.0 ('Over the Horizon') 64bit
Библиотека кодирования : libebml v1.3.1 + libmatroska v1.4.2

Видео
Идентификатор : 1
Формат : AVC
Формат/Информация : Advanced Video Codec
Профиль формата : High@L4
Параметр CABAC формата : Да
Параметр ReFrames формата : 5 кадров
Идентификатор кодека : V_MPEG4/ISO/AVC
Продолжительность : 1 ч. 51 м.
Битрейт : 4552 Кбит/сек
Ширина : 1920 пикселей
Высота : 804 пикселя
Соотношение сторон : 2,40:1
Режим частоты кадров : Постоянный
Частота кадров : 24,000 кадра/сек
Цветовое пространство : YUV
Субдискретизация насыщенности : 4:2:0
Битовая глубина : 8 бит
Тип развёртки : Прогрессивная
Бит/(Пиксели*Кадры) : 0.123
Размер потока : 3,53 Гбайт (86%)
Язык : English
Default : Да
Forced : Нет
Цветовой диапазон : Limited
Основные цвета : BT.709
Характеристики трансфера : BT.709
Коэффициенты матрицы : BT.709

Аудио #1
Идентификатор : 2
Формат : AC-3
Формат/Информация : Audio Coding 3
Расширение режима : CM (complete main)
Параметр Endianness формата : Big
Идентификатор кодека : A_AC3
Продолжительность : 1 ч. 51 м.
Вид битрейта : Постоянный
Битрейт : 384 Кбит/сек
Каналы : 6 каналов
Расположение каналов : Front: L C R, Side: L R, LFE
Частота : 48,0 КГц
Частота кадров : 31,250 кадров/сек (1536 spf)
Метод сжатия : С потерями
Размер потока : 305 Мбайт (7%)
Заголовок : DUb
Язык : Russian
Default : Да
Forced : Нет

Аудио #2
Идентификатор : 3
Формат : AC-3
Формат/Информация : Audio Coding 3
Расширение режима : CM (complete main)
Параметр Endianness формата : Big
Идентификатор кодека : A_AC3
Продолжительность : 1 ч. 51 м.
Вид битрейта : Постоянный
Битрейт : 384 Кбит/сек
Каналы : 6 каналов
Расположение каналов : Front: L C R, Side: L R, LFE
Частота : 48,0 КГц
Частота кадров : 31,250 кадров/сек (1536 spf)
Метод сжатия : С потерями
Размер потока : 305 Мбайт (7%)
Заголовок : Orig
Язык : Ukrainian
Default : Нет
Forced : Нет

Меню
00:00:00.000 : en:Глава 1
00:09:18.208 : en:Глава 2
00:15:14.791 : en:Глава 3
00:22:54.166 : en:Глава 4
00:30:15.124 : en:Глава 5
00:38:43.832 : en:Глава 6
00:45:55.998 : en:Глава 7
00:53:27.498 : en:Глава 8
01:00:40.748 : en:Глава 9
01:07:41.498 : en:Глава 10
01:15:28.748 : en:Глава 11
01:22:42.789 : en:Глава 12
01:30:27.580 : en:Глава 13
01:37:57.746 : en:Глава 14
01:45:13.454 : en:Глава 15

pb.wtf



Скачать Сторожевая застава через торрент http://i99.fastpic.ru/big/2017/1206/be/306b63152d12e8f6bc267dd2cb7399be.png Скачать фильм Сторожевая застава через торрент бесплантно в хорошем качестве Описание: Солнечное затмение активизирует магический временной портал, и обычный школьник Виктор из XXI века попадает на тысячу лет назад. ... 8.7 10 59
Info! Золотая раздача, скачанное не засчитывается.
Торрент: Зарегистрирован [2017-12-06 23:08] · скачан: 2 153 раз
Статус: √ проверено
Размер: 4.13 GB
Как cкачать? Как скачать Сторожевая застава через торрент | qTorrent

% Раздел Тема Автор DL S | L
Фильмы (WEB-DL 720p, 1080p) [ 3.82 GB ] Сторожевая застава [2017 WEB-DL 720p] DUB +ukr bober100 Скачать
1 | 0
Фильмы 2017 [DVDrip, WEB-DLRip, HDrip] (DUB, MVO) [ 2.05 GB ] Сторожевая застава [2017 WEB-DLRip] DUB +ukr bober100 Скачать
2 | 0


Последний раз редактировалось: bober100 (2017-12-07 05:30), всего редактировалось 1 раз

28-11-2019 20:33  

Отключить всю рекламу на сайте

07-12-2017 00:57 Сторожевая застава Скачать торрент  

Поди, все, кто принимал участие в этой картине и их друзья и знакомые, и голосовали за нее. Так как я не верю в этот рейтинг! pb.wtf



07-12-2017 05:08 Сторожевая застава Скачать торрент  

взаимно, но может хоть на шестёрочку...pb.wtf



07-12-2017 05:19 Сторожевая застава Скачать торрент  

chiSnoK писал(а):

Поди, все, кто принимал участие в этой картине и их друзья и знакомые, и голосовали за нее. Так как я не верю в этот рейтинг!

в рейтинг богатыря я тоже как то не верю
pb.wtf



07-12-2017 06:16 Сторожевая застава Скачать торрент  

а я оба скачаю и сравню - сравнил же "защитники" и "притяжение"!pb.wtf



07-12-2017 09:45 Сторожевая застава Скачать торрент  

Ну пожалуйста, ну скачайте, ну чо вы! Ставьте 10 или хотя бы 8!
Так вы себе представляете, вас типа уговаривать должны?
Да, все что снимают у нас - шлак и выглядит по детски. Почти все. Ну так идите мимо! К чему ваше нытье и сопли? Думаете вот эта рыганина делает вас лучше, объективнее? Или просто пройти мимо украинского фильма вы не в состоянии, надо сернут ьв штаны и кинуть какаху в патриотическом порыве? ВЫ смешны и унылы, как сами знаете что...pb.wtf



07-12-2017 23:32 Сторожевая застава Скачать торрент  

и тут про майдан? )pb.wtf



08-12-2017 19:09 Сторожевая застава Скачать торрент  

Да... Скажу я вам рейтинги тут значительно завышены. Но оно и понятно, всего 3-4 сотни проголосовавших - это не показатель... По мне так фильм-сказка для детишек, ни больше и ни меньше. Кто старше первоклассника проходим мимо.pb.wtf



09-12-2017 00:25 Сторожевая застава Скачать торрент  

Мне 43 года и фильм понравился!!!! +10pb.wtf



    Дорогой пользователь! Огромная просьба, поблагодарите релизера, оцените раздачу и оставьте свои комментарий, если Вы скачали Сторожевая застава через торрент бесплатно! Внесите свою лепту в развитие PiratBit!
    Комментировать посты могут только пользователи прошедшие не сложную регистрацию
    Показать сообщения:    

    Сторожевая застава через торрент
    Скачать бесплатно Сторожевая застава
    Сторожевая застава скачать торрент
    Сторожевая застава смотреть онлайн
    Cкачать фильм Сторожевая застава бесплатно
    Сторожевая застава скачать торрент в хорошем качестве
    Сторожевая застава смотреть онлайн бесплатно в хорошем качестве


    Вы не можете начинать темы
    Вы не можете отвечать на сообщения
    Вы не можете редактировать свои сообщения
    Вы не можете удалять свои сообщения
    Вы не можете голосовать в опросах
    Вы не можете прикреплять файлы к сообщениям
    Вы можете скачивать файлы