Ссылка на приватное зеркало всего за 1$. Внимание количество ограничено!!!

iTunes

iTunes

iTunes

1

iTunes

iTunes

iTunes

iTunes

iTunes

30
pack

$ от Little Big

ВАЖНО

!!Акция!!

Alien_RageХит недели

RePack

Resident Evil 21

ИГРА 18+

pack

RePack

jed

!!Акция!!

Alien_Rage

RePack

fifa19

RePack

Assassins Creed: Odyssey

RePack

NEED FOR SPEED™ PAYBACK

4 сезон

9 сезон

Бесстыжие 9 сезон

Все сериалы

все сериалы на PB.wtf

RePack

FAR CRY 5
  

Сторожевая застава (Юрий Ковалев) [2017, приключения, фэнтези, WEB-DL 720p] DUB (rus) +ukr [iTunes] pb.wtf

Сторожевая застава через торрент pb.wtf

Размер: 3.82 GB | Добавлен: 2 года 7 мес. назад | Торрент скачан:1098 раз
Скачать  

07-12-2017 05:33 Сторожевая застава Скачать торрент  

Сторожевая заставаГод выпуска: 2017
Страна: Украина
Жанр: приключения, фэнтези
Продолжительность: 01:51:05
Перевод: Дублированный (iTunes)
Субтитры: отсутствуют

Режиссер: Юрий Ковалев

rating

В ролях:

Даниил Каменский, Ева Кошевая, Роман Луцкий, Олег Волощенко, Георгий Деревянский, Слава Красовская, Наталья Сумская, Александр Комаров, Ержан Нурымбет, Ерболат Тогузаков

Описание:

Солнечное затмение активизирует магический временной портал, и обычный школьник Виктор из XXI века попадает на тысячу лет назад. В юном Олежке, могучем Илье и суровом Добрыне Витя без труда узнает былинных богатырей. Их жизнь проходит в сражениях с половцами, которые любой ценой, с помощью и оружия, и черной магии, пытаются уничтожить русичей. Витя оказывается в самом центре невероятных событий, вступает в битву с мифическим существами и обретает настоящее мужество.

Качество: WEB-DL 720p
Формат: MKV
Видео кодек: H.264
Аудио кодек: AC3

Видео: MPEG-4 AVC, 4153 Кбит/с, 1280x534
Аудио#1: Русский (АС3, 6 ch, 384 Кбит/с)
Аудио#2: украинский (АС3, 6 ch, 384 Кбит/с)
скриншот   скриншот   скриншот   скриншот   скриншот  

Общее
Уникальный идентификатор : 192426628799767932314326018978254421114 (0x90C40549567A1D64BA0BA498D30BFC7A)
Полное имя : D:\Ct0P0zh3Baya.3aCtaBa.2O17.D.WEB-DL.72Op.mkv
Формат : Matroska
Версия формата : Version 2
Размер файла : 3,82 Гбайт
Продолжительность : 1 ч. 51 м.
Общий поток : 4923 Кбит/сек
Дата кодирования : UTC 2017-12-06 18:47:13
Программа кодирования : mkvmerge v8.3.0 ('Over the Horizon') 64bit
Библиотека кодирования : libebml v1.3.1 + libmatroska v1.4.2

Видео
Идентификатор : 1
Формат : AVC
Формат/Информация : Advanced Video Codec
Профиль формата : High@L4.1
Параметр CABAC формата : Да
Параметр ReFrames формата : 4 кадра
Идентификатор кодека : V_MPEG4/ISO/AVC
Продолжительность : 1 ч. 51 м.
Битрейт : 4153 Кбит/сек
Ширина : 1280 пикселей
Высота : 534 пикселя
Соотношение сторон : 2,40:1
Режим частоты кадров : Постоянный
Частота кадров : 24,000 кадра/сек
Цветовое пространство : YUV
Субдискретизация насыщенности : 4:2:0
Битовая глубина : 8 бит
Тип развёртки : Прогрессивная
Бит/(Пиксели*Кадры) : 0.253
Размер потока : 3,22 Гбайт (84%)
Default : Да
Forced : Нет

Аудио #1
Идентификатор : 2
Формат : AC-3
Формат/Информация : Audio Coding 3
Расширение режима : CM (complete main)
Параметр Endianness формата : Big
Идентификатор кодека : A_AC3
Продолжительность : 1 ч. 51 м.
Вид битрейта : Постоянный
Битрейт : 384 Кбит/сек
Каналы : 6 каналов
Расположение каналов : Front: L C R, Side: L R, LFE
Частота : 48,0 КГц
Частота кадров : 31,250 кадров/сек (1536 spf)
Метод сжатия : С потерями
Размер потока : 305 Мбайт (8%)
Заголовок : DUb
Язык : Russian
Default : Да
Forced : Нет

Аудио #2
Идентификатор : 3
Формат : AC-3
Формат/Информация : Audio Coding 3
Расширение режима : CM (complete main)
Параметр Endianness формата : Big
Идентификатор кодека : A_AC3
Продолжительность : 1 ч. 51 м.
Вид битрейта : Постоянный
Битрейт : 384 Кбит/сек
Каналы : 6 каналов
Расположение каналов : Front: L C R, Side: L R, LFE
Частота : 48,0 КГц
Частота кадров : 31,250 кадров/сек (1536 spf)
Метод сжатия : С потерями
Размер потока : 305 Мбайт (8%)
Заголовок : Orig
Язык : Ukrainian
Default : Нет
Forced : Нет

Меню
00:00:00.000 : en:Глава 1
00:09:18.208 : en:Глава 2
00:15:14.791 : en:Глава 3
00:22:54.166 : en:Глава 4
00:30:15.124 : en:Глава 5
00:38:43.832 : en:Глава 6
00:45:55.998 : en:Глава 7
00:53:27.498 : en:Глава 8
01:00:40.748 : en:Глава 9
01:07:41.498 : en:Глава 10
01:15:28.748 : en:Глава 11
01:22:42.789 : en:Глава 12
01:30:27.580 : en:Глава 13
01:37:57.746 : en:Глава 14
01:45:13.454 : en:Глава 15

pb.wtf



Скачать Сторожевая застава через торрент http://pic1.kartinco.top/images/11/8y5d7.jpg Скачать фильм Сторожевая застава через торрент бесплантно в хорошем качестве Описание: Солнечное затмение активизирует магический временной портал, и обычный школьник Виктор из XXI века попадает на тысячу лет назад. ... 7.7 10 21
Info! Золотая раздача, скачанное не засчитывается.
Торрент: Зарегистрирован [2017-12-07 05:33] · скачан: 1 098 раз
Статус: √ проверено
Размер: 3.82 GB
Как cкачать? Как скачать Сторожевая застава через торрент | qTorrent

% Раздел Тема Автор DL S | L
Фильмы (WEB-DL 720p, 1080p) [ 4.13 GB ] Сторожевая застава [2017 WEB-DL 1080p] DUB +ukr bober100 Скачать
1 | 0
Фильмы 2017 [DVDrip, WEB-DLRip, HDrip] (DUB, MVO) [ 2.05 GB ] Сторожевая застава [2017 WEB-DLRip] DUB +ukr bober100 Скачать
2 | 0

28-11-2019 20:33  

Отключить всю рекламу на сайте

08-12-2017 05:33 Сторожевая застава Скачать торрент  

заценим!
СПАСИБО bober100!!!
pb.wtf



08-12-2017 15:33 Сторожевая застава Скачать торрент  

классная добрая сказка для семейного просмотра в выходной день.всем смотреть.спасибо раздающему.pb.wtf



    Дорогой пользователь! Огромная просьба, поблагодарите релизера, оцените раздачу и оставьте свои комментарий, если Вы скачали Сторожевая застава через торрент бесплатно! Внесите свою лепту в развитие PiratBit!
    Комментировать посты могут только пользователи прошедшие не сложную регистрацию
    Показать сообщения:    

    Сторожевая застава через торрент
    Скачать бесплатно Сторожевая застава
    Сторожевая застава скачать торрент
    Сторожевая застава смотреть онлайн
    Cкачать фильм Сторожевая застава бесплатно
    Сторожевая застава скачать торрент в хорошем качестве
    Сторожевая застава смотреть онлайн бесплатно в хорошем качестве


    Вы не можете начинать темы
    Вы не можете отвечать на сообщения
    Вы не можете редактировать свои сообщения
    Вы не можете удалять свои сообщения
    Вы не можете голосовать в опросах
    Вы не можете прикреплять файлы к сообщениям
    Вы можете скачивать файлы