Ссылка на приватное зеркало нашего сайта всего за 1$. Внимание количество ограничено!!!

2 сезон

iTunes

1 сезон

1

iTunes

iTunes

iTunes

1 сезон

RePack

30

ИГРА 18+

pack

ВАЖНО

!!Акция!!

Alien_RageХит недели

RePack

MK11
pack

Забери бонус

RePack

jed

!!Акция!!

Alien_Rage

RePack

fifa19

RePack

Assassins Creed: Odyssey

RePack

NEED FOR SPEED™ PAYBACK

4 сезон

9 сезон

Бесстыжие 9 сезон

Все сериалы

все сериалы на PB.wtf

RePack

FAR CRY 5
  

Ну что, приехали: Ремонт / Are We Done Yet? (Стив Карр) [2007 г, комедия, семейный, BDRip 720p] MVO pb.wtf

Ну что, приехали: Ремонт через торрент pb.wtf

Размер: 4.37 GB | Добавлен: 2 года 10 мес. назад | Торрент скачан:147 раз
Скачать  

07-12-2017 11:20 Ну что, приехали: Ремонт Скачать торрент  

Ну что приехали: Ремонт / Are We Done Yet?
Год выпуска: 2007
Страна: Канада, США
Жанр: комедия, семейный
Продолжительность: 01:32:02
Перевод: Профессиональный (многоголосый)
Субтитры: Английские

Режиссер: Стив Карр

rating

В ролях: Айс Кьюб, Ниа Лонг, Джон К. МакГинли, Алейша Аллен, Филип Болден, Джонатан Кац, Линда Кэш, Александр Калугин, Дэн Йоффре, Педро Мигель Арсе, Таж Моури, Джейкоб Варгас, Бренда Приер, Хэйз МакАртур, Колин Стрэйндж, Гэвин Стрэйндж, Крис Готье, Тара Миркурио

Описание: Продолжение семейной комедии 2005-го года «Ну что, приехали?». Молодожены Ник и Сюзанна решают переехать в уютный пригород, пытаясь сделать жизнь своих беспокойных детишек максимально комфортной. Однако идею «дома мечты» реализовать не так-то просто: Ник и Сюзанна связались с подрядчиком-строителем, у которого, похоже, не все дома…

Качество: BDRip 720p
Формат: MKV
Видео: MPEG-4 AVC, 6024 Кбит/с, 1280x692, 23.976 кадр/с
Аудио #1: AC3, 6 ch, 384 Кбит/с | Русский
Аудио #2: AC3, 6 ch, 384 Кбит/с | Английский
Релиз от: Koenig
скриншот   скриншот   скриншот   скриншот   скриншот   скриншот  

Общее
Уникальный идентификатор : 183529263358873078074039422008311403478 (0x8A12734D3EC691F48D7C3B9C0263D3D6)
Полное имя : Are.We.Done.Yet.2007.BDRip.720p.mkv
Формат : Matroska
Версия формата : Version 4 / Version 2
Размер файла : 4,37 Гбайт
Продолжительность : 1 ч. 32 м.
Общий поток : 6789 Кбит/сек
Название фильма : Are.We.Done.Yet.2007.BDRip.720p by Koenig
Дата кодирования : UTC 2017-12-07 06:57:08
Программа кодирования : mkvmerge v12.0.0 ('Trust / Lust') 32bit
Библиотека кодирования : libebml v1.3.4 + libmatroska v1.4.5
Обложка : Yes
Attachments : cover.jpg

Видео
Идентификатор : 1
Формат : AVC
Формат/Информация : Advanced Video Codec
Профиль формата : High@L4.1
Параметр CABAC формата : Да
Параметр ReFrames формата : 9 кадров
Идентификатор кодека : V_MPEG4/ISO/AVC
Продолжительность : 1 ч. 32 м.
Битрейт : 6024 Кбит/сек
Ширина : 1280 пикселей
Высота : 692 пикселя
Соотношение сторон : 1,85:1
Режим частоты кадров : Постоянный
Частота кадров : 23,976 (24000/1001) кадра/сек
Цветовое пространство : YUV
Субдискретизация насыщенности : 4:2:0
Битовая глубина : 8 бит
Тип развёртки : Прогрессивная
Бит/(Пиксели*Кадры) : 0.284
Размер потока : 3,87 Гбайт (89%)
Заголовок : We.Done.Yet
Библиотека кодирования : x264 core 152 r2851 ba24899
Настройки программы : cabac=1 / ref=9 / deblock=1:-3:-3 / analyse=0x3:0x133 / me=umh / subme=10 / psy=1 / psy_rd=1.03:0.10 / mixed_ref=1 / me_range=32 / chroma_me=1 / trellis=2 / 8x8dct=1 / cqm=0 / deadzone=21,11 / fast_pskip=0 / chroma_qp_offset=-3 / threads=3 / lookahead_threads=1 / sliced_threads=0 / nr=0 / decimate=1 / interlaced=0 / bluray_compat=0 / constrained_intra=0 / bframes=10 / b_pyramid=2 / b_adapt=2 / b_bias=0 / direct=3 / weightb=1 / open_gop=0 / weightp=2 / keyint=240 / keyint_min=23 / scenecut=40 / intra_refresh=0 / rc_lookahead=40 / rc=2pass / mbtree=1 / bitrate=6024 / ratetol=1.0 / qcomp=0.60 / qpmin=10 / qpmax=51 / qpstep=4 / cplxblur=20.0 / qblur=0.5 / vbv_maxrate=50000 / vbv_bufsize=62500 / nal_hrd=none / filler=0 / ip_ratio=1.40 / aq=1:1.00
Язык : English
Default : Да
Forced : Нет

Аудио #1
Идентификатор : 2
Формат : AC-3
Формат/Информация : Audio Coding 3
Параметр Endianness формата : Big
Идентификатор кодека : A_AC3
Продолжительность : 1 ч. 32 м.
Вид битрейта : Постоянный
Битрейт : 384 Кбит/сек
Каналы : 6 каналов
Расположение каналов : Front: L C R, Side: L R, LFE
Частота : 48,0 КГц
Частота кадров : 31,250 кадров/сек (1536 spf)
Битовая глубина : 16 бит
Метод сжатия : С потерями
Размер потока : 253 Мбайт (6%)
Заголовок : MVO
Язык : Russian
ServiceKind/String : Complete Main
Default : Да
Forced : Нет

Аудио #2
Идентификатор : 3
Формат : AC-3
Формат/Информация : Audio Coding 3
Параметр Endianness формата : Big
Идентификатор кодека : A_AC3
Продолжительность : 1 ч. 32 м.
Вид битрейта : Постоянный
Битрейт : 384 Кбит/сек
Каналы : 6 каналов
Расположение каналов : Front: L C R, Side: L R, LFE
Частота : 48,0 КГц
Частота кадров : 31,250 кадров/сек (1536 spf)
Битовая глубина : 16 бит
Метод сжатия : С потерями
Размер потока : 253 Мбайт (6%)
Язык : English
ServiceKind/String : Complete Main
Default : Нет
Forced : Нет

Текст
Идентификатор : 4
Формат : UTF-8
Идентификатор кодека : S_TEXT/UTF8
Идентификатор кодека/Информация : UTF-8 Plain Text
Продолжительность : 1 ч. 21 м.
Битрейт : 77 бит/сек
ElementCount : 1272
Размер потока : 46,3 Кбайт (0%)
Язык : English
Default : Да
Forced : Нет

Меню
00:00:00.000 : en:00:00:00.000
00:04:23.638 : en:00:04:23.638
00:07:43.838 : en:00:07:43.838
00:13:42.697 : en:00:13:42.697
00:20:54.003 : en:00:20:54.003
00:23:04.216 : en:00:23:04.216
00:30:53.226 : en:00:30:53.226
00:36:28.561 : en:00:36:28.561
00:40:46.069 : en:00:40:46.069
00:47:42.860 : en:00:47:42.860
00:52:12.921 : en:00:52:12.921
00:57:14.139 : en:00:57:14.139
01:03:28.638 : en:01:03:28.638
01:09:30.750 : en:01:09:30.750
01:12:30.012 : en:01:12:30.012
01:17:52.501 : en:01:17:52.501

pb.wtf



Скачать Ну что, приехали: Ремонт через торрент http://pic1.kartinco.top/images/11/k9md9.jpg Скачать фильм Ну что, приехали: Ремонт через торрент бесплантно в хорошем качестве Описание: Продолжение семейной комедии 2005-го года «Ну что, приехали?». Молодожены Ник и Сюзанна решают переехать в уютный пригород, ... 7 10 3
Торрент: Зарегистрирован [2017-12-07 11:20] · скачан: 147 раз
Статус: √ проверено
Размер: 4.37 GB
Как cкачать? Как скачать Ну что, приехали: Ремонт через торрент | qTorrent

28-11-2019 20:33  

Отключить всю рекламу на сайте

07-12-2017 20:59 Ну что, приехали: Ремонт Скачать торрент  

Айс кьюб прилежно снимается в семейных фильмах для людей с заниженой самооценкой и одной извилиной на всех.pb.wtf



    Дорогой пользователь! Огромная просьба, поблагодарите релизера, оцените раздачу и оставьте свои комментарий, если Вы скачали Ну что, приехали: Ремонт через торрент бесплатно! Внесите свою лепту в развитие PiratBit!
    Комментировать посты могут только пользователи прошедшие не сложную регистрацию
    Показать сообщения:    

    Ну что, приехали: Ремонт через торрент
    Скачать бесплатно Ну что, приехали: Ремонт
    Ну что, приехали: Ремонт скачать торрент
    Ну что, приехали: Ремонт смотреть онлайн
    Cкачать фильм Ну что, приехали: Ремонт бесплатно
    Ну что, приехали: Ремонт скачать торрент в хорошем качестве
    Ну что, приехали: Ремонт смотреть онлайн бесплатно в хорошем качестве


    Вы не можете начинать темы
    Вы не можете отвечать на сообщения
    Вы не можете редактировать свои сообщения
    Вы не можете удалять свои сообщения
    Вы не можете голосовать в опросах
    Вы не можете прикреплять файлы к сообщениям
    Вы можете скачивать файлы