Ссылка на приватное зеркало нашего сайта всего за 1$. Внимание количество ограничено!!!

2 сезон

iTunes

1 сезон

1

2 сезон

2 сезон

iTunes

1 сезон

RePack

30

Ultimate

ВАЖНО

ИГРА 18+

pack

RePack

MK11
pack

Забери бонус

RePack

jed

!!Акция!!

Alien_Rage

RePack

fifa19

RePack

Assassins Creed: Odyssey

RePack

NEED FOR SPEED™ PAYBACK

4 сезон

9 сезон

Бесстыжие 9 сезон

Все сериалы

все сериалы на PB.wtf

RePack

FAR CRY 5
  

Одарённые / The Gifted / 1 сезон / Серии 1-13 из 13 (Брайан Сингер) [2017, фантастика, фэнтези, боевик, WEB-DL 720p] MVO [Jaskier] pb.wtf

Одарённые через торрент pb.wtf

Размер: 13.14 GB | Добавлен: 2 года 9 мес. назад | Торрент скачан:47 раз
Скачать  

08-12-2017 05:27 Одарённые Скачать торрент  

Одарённые / The Gifted
Информация о фильме:

✦ Название: Одарённые
✦ Оригинальное название: The Gifted
✦ Год выпуска: 2017
✦ Страна: США / Marvel Television, Walt Disney Television, Twentieth Century Fox Television
✦ Жанр: фантастика, фэнтези, боевик
✦ Продолжительность: x ~ 00:50:00 серия
✦ Перевод: Профессиональный (многоголосый) - Jaskier
✦ Субтитры: английские

✦ Режиссер: Брайан Сингер

rating

В ролях:

Колин Битон, Эми Акер, Стеффан Аргус, Билли Блэр, Джейсон Бремер, Пол Каревей, Эмма Дюмон, Дэйл Годбольдо, Джессика Лия

Описание:

Сюжет строится вокруг двух обычных родителей, чьи дети открывают в себе сверхъестественные способности. Семья вынуждена скрываться от правительства, недружелюбно настроенного по отношению к юным мутантам, и присоединяется к подпольной организации суперлюдей.

Информация о файле:

✦ Качество: WEB-DL 720p
✦ Формат: MKV
✦ Видео кодек: H.264
✦ Аудио кодек: AC3

✦ Видео: ~ 3000 kbps, 1280х720
✦ Аудио#1 RU: AC3, 6 ch, 384 kbps
✦ Аудио#2 EN: AC3, 6 ch, 384 kbps


скриншот   скриншот   скриншот  

Общее
Уникальный идентификатор : 175359654983114134335543536545984935289 (0x83ED0A82B523F10A8A6EF15C777BF579)
Полное имя : D:\The Gifted. Season 1 (WEB-DL l 720p l Jaskier)\The.Gifted.S01E01.720p.AMZN.WEB-DL.H.264-Jaskier.mkv
Формат : Matroska
Версия формата : Version 2
Размер файла : 1,12 Гбайт
Продолжительность : 47 м. 18 с.
Режим общего битрейта : Переменный
Общий поток : 3376 Кбит/сек
Дата кодирования : UTC 2017-12-01 11:31:48
Программа кодирования : mkvmerge v7.8.0 ('River Man') 32bit built on Apr 3 2015 12:11:22
Библиотека кодирования : libebml v1.3.1 + libmatroska v1.4.2

Видео
Идентификатор : 1
Формат : AVC
Формат/Информация : Advanced Video Codec
Профиль формата : High@L3.1
Параметр CABAC формата : Да
Параметр ReFrames формата : 5 кадров
Идентификатор кодека : V_MPEG4/ISO/AVC
Продолжительность : 47 м. 18 с.
Вид битрейта : Переменный
Битрейт : 2941 Кбит/сек
Максимальный битрейт : 4500 Кбит/сек
Ширина : 1280 пикселей
Высота : 720 пикселей
Соотношение сторон : 16:9
Режим частоты кадров : Постоянный
Частота кадров : 23,976 (24000/1001) кадра/сек
Цветовое пространство : YUV
Субдискретизация насыщенности : 4:2:0
Битовая глубина : 8 бит
Тип развёртки : Прогрессивная
Бит/(Пиксели*Кадры) : 0.115
Размер потока : 860 Мбайт (75%)
Язык : English
Default : Да
Forced : Нет
Цветовой диапазон : Limited
Основные цвета : BT.709
Характеристики трансфера : BT.709
Коэффициенты матрицы : BT.709

Аудио #1
Идентификатор : 2
Формат : AC-3
Формат/Информация : Audio Coding 3
Расширение режима : CM (complete main)
Параметр Endianness формата : Big
Идентификатор кодека : A_AC3
Продолжительность : 47 м. 18 с.
Вид битрейта : Постоянный
Битрейт : 384 Кбит/сек
Каналы : 6 каналов
Расположение каналов : Front: L C R, Side: L R, LFE
Частота : 48,0 КГц
Частота кадров : 31,250 кадров/сек (1536 spf)
Метод сжатия : С потерями
Размер потока : 130 Мбайт (11%)
Заголовок : Jaskier
Язык : Russian
Default : Да
Forced : Нет

Аудио #2
Идентификатор : 3
Формат : AC-3
Формат/Информация : Audio Coding 3
Расширение режима : CM (complete main)
Параметр Endianness формата : Big
Идентификатор кодека : A_AC3
Продолжительность : 47 м. 18 с.
Вид битрейта : Постоянный
Битрейт : 384 Кбит/сек
Каналы : 6 каналов
Расположение каналов : Front: L C R, Side: L R, LFE
Частота : 48,0 КГц
Частота кадров : 31,250 кадров/сек (1536 spf)
Метод сжатия : С потерями
Размер потока : 130 Мбайт (11%)
Язык : English
Default : Нет
Forced : Нет

Текст
Идентификатор : 4
Формат : UTF-8
Идентификатор кодека : S_TEXT/UTF8
Идентификатор кодека/Информация : UTF-8 Plain Text
Язык : English
Default : Нет
Forced : Нет

Когда раздача ведётся путём добавления новых серий, при каждом добавлении создётся новый торрент. Чтобы начать докачку новой серии, пользователям необходимо сделать следующее:
(1) остановить скачивание,
(2) удалить старый торрент у себя из клиента (старые серии удалять не надо),
(3) скачать новый торрент и запустить его у себя в клиенте вместо старого, при этом указать клиенту путь в старую папку, куда и должно происходить скачивание новых серий.
Ваш клиент при этом должен произвести хеширование (проверку) старой папки (если не производит сам - помогите ему сделать это), и будет докачивать только те серии, которых у вас ещё нет. Старые серии при этом не удаляются, а продолжают раздаваться!
Eсли вы уже удалили старые серии, то предотвратить повторную закачку старых серий можно, отжав галочку в соответсвующих местах при запуске нового торрента. По возможности, желательно не удалять старые серии как можно дольше, чтобы релизёр не столько продолжал раздавать старые серии, а смог сконцентрироваться на новых.
pb.wtf



Скачать Одарённые через торрент http://img12.lostpic.net/2018/02/18/a82bab5e90c18e7fadf1df5677b9c60b.png Скачать фильм Одарённые через торрент бесплантно в хорошем качестве Описание: Сюжет строится вокруг двух обычных родителей, чьи дети открывают в себе сверхъестественные способности. Семья вынуждена ... 10 10 4
Торрент: Зарегистрирован [2018-02-24 18:47] · скачан: 47 раз
Статус: √ проверено
Размер: 13.14 GB
Как cкачать? Как скачать Одарённые через торрент | qTorrent

% Раздел Тема Автор DL S | L
Зарубежные сериалы [ 40.85 GB ] Одаренные / The Gifted / Сезон: 1 / Серии: 1-13 из 13 [2017 WEB-DL 1080p] MVO [LostFilm] bober100 Скачать
1 | 5
Зарубежные сериалы [ 6.99 GB ] Одарённые / The Gifted / Сезон 1 / Серии 1-13 из 13 [2017 WEB-DLRip] MVO [FOX] bober100 Скачать
1 | 0
Зарубежные сериалы [ 6.99 GB ] Одарённые / The Gifted / 1 сезон / Серии 1-13 из 13 [2017 WEB-DLRip] MVO [Jaskier] bober100 Скачать
2 | 0
Зарубежные сериалы [ 15.23 GB ] Одарённые / The Gifted / 1 сезон / 1-13 серия из 13 [2017 WEBRip 720p] [MVO] killermax2013 Скачать
1 | 0
Зарубежные сериалы [ 6.99 GB ] Одарённые / The Gifted / Сезон: 1 / Серии: 1-13 из 13 [2017 WEB-DLRip] MVO [LostFilm] bober100 Скачать
3 | 0
Зарубежные сериалы [ 25.48 GB ] Одарённые / The Gifted / 1 сезон / 1-13 серия из 13 [2017 WEB-DLRip 1080p] [MVO] killermax2013 Скачать
1 | 0
Зарубежные сериалы [ 5.13 GB ] Одарённые / The Gifted / 1 сезон / 1-13 серия из 13 [2017 WEBRip] [MVO] killermax2013 Скачать
1 | 0


Последний раз редактировалось: bober100 (2018-02-24 18:47), всего редактировалось 1 раз

28-11-2019 20:33  

Отключить всю рекламу на сайте

18-02-2018 11:24 Одарённые Скачать торрент  

это из ряда людей икс?pb.wtf



    Дорогой пользователь! Огромная просьба, поблагодарите релизера, оцените раздачу и оставьте свои комментарий, если Вы скачали Одарённые через торрент бесплатно! Внесите свою лепту в развитие PiratBit!
    Комментировать посты могут только пользователи прошедшие не сложную регистрацию
    Показать сообщения:    

    Одарённые через торрент
    Скачать бесплатно Одарённые
    Одарённые скачать торрент
    Одарённые смотреть онлайн
    Cкачать фильм Одарённые бесплатно
    Одарённые скачать торрент в хорошем качестве
    Одарённые смотреть онлайн бесплатно в хорошем качестве


    Вы не можете начинать темы
    Вы не можете отвечать на сообщения
    Вы не можете редактировать свои сообщения
    Вы не можете удалять свои сообщения
    Вы не можете голосовать в опросах
    Вы не можете прикреплять файлы к сообщениям
    Вы можете скачивать файлы