Ссылка на приватное зеркало всего за 1$. Внимание количество ограничено!!!

iTunes

1+1

iTunes

мы

WEB-DL

1

iTunes

Чернобыль

iTunes

Ральф против интернета

Лицензия

ПШазам

Лицензия

Оно 2

Лицензия

30
pack

Вам бонус

ВАЖНО

!!Акция!!

Alien_RageХит недели

RePack

Resident Evil 21

ИГРА 18+

pack

RePack

jed

!!Акция!!

Alien_Rage

RePack

fifa19

RePack

Assassins Creed: Odyssey

RePack

NEED FOR SPEED™ PAYBACK

3 сезон

9 сезон

Бесстыжие 9 сезон

Все сериалы

все сериалы на PB.wtf

RePack

FAR CRY 5
Ребята, катастрофически не хватает 1900р. для оплаты серверов за Октябрь (всвязи с блокировками трафик упал в 3 раза), 1-2р., выручайте.
  

Потерянная фотография (Лев Кулиджанов) [1959, СССР, Чехословакия, драма, SATRip от AVP Studio] pb.wtf

Потерянная фотография через торрент pb.wtf

Размер: 1.09 GB | Добавлен: 2 года назад | Торрент скачан:8 раз
Скачать  

08-12-2017 10:11 Потерянная фотография Скачать торрент  

Потерянная фотография
Страна: СССР
Производство: киностудия им. М.Горького и "Баррандов"

Жанр: драма
Год выпуска: 1959
Продолжительность: 01:15:03

Перевод: Не требуется
Cубтитры: нет
Оригинальная аудиодорожка: русский

Режиссер: Лев Кулиджанов

В ролях:
Елена Кнаппова, Ян Шир, Властимил Бродский, Франтишек Ганус, Николай Гарин, Женя Демочкина, Вера Дихтяр, Николай Довженко, Лидия Драновская, Стелла Зазворкова, Александр Кекиш, Петер Колларик, Валерий Мотренко, Вячеслав Подвиг, Олег Попов, Томаш Седлачек, Ярмила Смейкалова, Дагмар Таборска, Леонид Топчиев, Н. Третьяченко, Станислав Фишер, Андрюша Чернощеков, Борис Чирков, Карел Эффа...
Об актёрах подробней

Описание:
О дружбе советских и чехословацких ребят.
Вашек не помнил человека, изображенного на фотографии. Это был советский танкист, один из тех, кто освободил Прагу от немцев в мае 1945 года. Мать часто рассказывала, как дорога была танкисту эта потерянная фотография - единственная память о семье, пропавшей в оккупированной Одессе.

Исходник: DVB
Качество видео: SATRip
Формат видео: AVI

Видео: 704х528 (4:3), 25 fps, XviD ~ 1878 kbps avg, 0.202 bit/pixel
Аудио: 48 kHz, Dolby Digital AC3 2.0, 192 kbps

Раздача от:
Общее
Полное имя : Poteryannaya.fotografiya.1959.SATRip_[New-team]_by_AVP_Studio.avi
Формат : AVI
Формат/Информация : Audio Video Interleave
Размер файла : 1,09 Гбайт
Продолжительность : 1 ч. 15 м.
Общий поток : 2080 Кбит/сек
Программа кодирования : VirtualDubMod 1.5.10.3 | www.virtualdub-fr.org || (build 2550/release)
Библиотека кодирования : VirtualDubMod build 2550/release

Видео
Идентификатор : 0
Формат : MPEG-4 Visual
Профиль формата : Advanced Simple@L5
Настройки формата : BVOP1 / Custom Matrix
Параметр BVOP формата : 1
Параметр QPel формата : Нет
Параметр GMC формата : Без точки перехода
Параметр матрицы формата : Выборочная
Идентификатор кодека : XVID
Идентификатор кодека/Подсказка : XviD
Продолжительность : 1 ч. 15 м.
Битрейт : 1878 Кбит/сек
Ширина : 704 пикселя
Высота : 528 пикселей
Соотношение сторон : 4:3
Частота кадров : 25,000 кадров/сек
Цветовое пространство : YUV
Субдискретизация насыщенности : 4:2:0
Битовая глубина : 8 бит
Тип развёртки : Прогрессивная
Метод сжатия : С потерями
Бит/(Пиксели*Кадры) : 0.202
Размер потока : 1008 Мбайт (90%)
Библиотека кодирования : XviD 73

Аудио
Идентификатор : 1
Формат : AC-3
Формат/Информация : Audio Coding 3
Идентификатор кодека : 2000
Продолжительность : 1 ч. 15 м.
Вид битрейта : Постоянный
Битрейт : 192 Кбит/сек
Каналы : 2 канала
Расположение каналов : Front: L R
Частота : 48,0 КГц
Частота кадров : 31,250 кадров/сек (1536 SPF)
Битовая глубина : 16 бит
Метод сжатия : С потерями
Размер потока : 103 Мбайт (9%)
Выравнивание : Разделение по промежуткам
Продолжительность промежутка : 40 мс. (1,00 видеокадр)
Время предзагрузки промежутка : 500 мс
pb.wtf



Скачать Потерянная фотография через торрент http://s019.radikal.ru/i629/1712/da/d7930808e4ec.png Скачать фильм Потерянная фотография через торрент бесплантно в хорошем качестве Описание:О дружбе советских и чехословацких ребят.Вашек не помнил человека, изображенного на фотографии. Это был советский танкист, один из ... 10 10 1
Info! Золотая раздача, скачанное не засчитывается.
Торрент: Зарегистрирован [2017-12-08 10:11] · скачан: 8 раз
Статус: √ проверено
Размер: 1.09 GB
Как cкачать? Как скачать Потерянная фотография через торрент | qTorrent

% Раздел Тема Автор DL S | L
Кино СССР [ 1.09 GB ] Потерянная фотография [1959 СССР Чехословакия SATRip-AVC от AVP Studio] AVP Studio Скачать
1 | 0

28-11-2019 20:33  

Отключить всю рекламу на сайте

    Дорогой пользователь! Огромная просьба, поблагодарите релизера, оцените раздачу и оставьте свои комментарий, если Вы скачали Потерянная фотография через торрент бесплатно! Внесите свою лепту в развитие PiratBit!
    Комментировать посты могут только пользователи прошедшие не сложную регистрацию
    Показать сообщения:    

    Потерянная фотография через торрент
    Скачать бесплатно Потерянная фотография
    Потерянная фотография скачать торрент
    Потерянная фотография смотреть онлайн
    Cкачать фильм Потерянная фотография бесплатно
    Потерянная фотография скачать торрент в хорошем качестве
    Потерянная фотография смотреть онлайн бесплатно в хорошем качестве


    Вы не можете начинать темы
    Вы не можете отвечать на сообщения
    Вы не можете редактировать свои сообщения
    Вы не можете удалять свои сообщения
    Вы не можете голосовать в опросах
    Вы не можете прикреплять файлы к сообщениям
    Вы можете скачивать файлы