Ссылка на приватное зеркало нашего сайта всего за 1$. Внимание количество ограничено!!!

2 сезон

iTunes

1 сезон

1

2 сезон

2 сезон

iTunes

1 сезон

RePack

30

Новинка

ВАЖНО

ИГРА 18+

pack

RePack

MK11
pack

Забери бонус

RePack

jed

!!Акция!!

Alien_Rage

RePack

fifa19

RePack

Assassins Creed: Odyssey

RePack

NEED FOR SPEED™ PAYBACK

4 сезон

9 сезон

Бесстыжие 9 сезон

Все сериалы

все сериалы на PB.wtf

RePack

FAR CRY 5
  

Падение Ордена / Knightfall / Сезон 1 / Серия 1-3 из 8 (Дуглас Маккиннон, Метин Хусейн, Дэвид Петрарка) [2017, Боевик, драма, приключения, WEBRip] [MVO] (SDI Media) pb.wtf

Падение Ордена через торрент pb.wtf

Размер: 1.81 GB | Добавлен: 2 года 11 мес. назад | Торрент скачан:42 раза

Как Вам данный сериал ?

 1.Отлично (3)

 2.Середнячок но смотреть можно (2)

 3.Полный бред (0)

 4.Свой вариант (пишем в комментариях) (0)

Всего проголосовало : 5

Скачать  

08-12-2017 18:06 Падение Ордена Скачать торрент  

Падение Ордена / Knightfall
Год выпуска: 2017
Страна: США,
Жанр: боевик, драма, военный, приключения
Продолжительность: ~ 00:44:00
Озвучание: Профессиональное (многоголосое закадровое) (SDI Media)

В ролях: Том Каллен, Падрейк Делани, Саймон Мерреллс, Оливия Росс, Джулиан Овенден, Эд Стоппард, Сабрина Бартлетт, Бобби Шофилд, Сара-Софи Бусснина, Нассер Мемарзиа и др.

Описание: Действие сериала разворачивается вокруг самой драгоценной и загадочной реликвии христианства — Святого Грааля, бесследно утерянного в результате падения города Акры, последнего оплота тамплиеров. Существование Ордена теперь под угрозой и зависит от того, будет ли найден Кубок Христа. На поиски Грааля отправляется предводитель тамплиеров — храбрый воин сэр Лэндри, чтобы помешать уничтожению Ордена.



Качество: WEBRip
Формат: AVI
Видео: 720x400, 23.976 fps, XviD ~1730 kbps avg
Аудио: 48 kHz, AC3, 2 ch, ~192.00 kbps avg - MVO
Аудио: 48 kHz, AC3, 2 ch, ~192.00 kbps avg - ENG
Субтитры: нет
скриншот  скриншот  скриншот  
General
Complete name : E:\PadeH1a.Opd3Ha.S01E01.Amedia.avi
Format : AVI
Format/Info : Audio Video Interleave
File size : 702 MiB
Duration : 44 min 20 s
Overall bit rate : 2 212 kb/s
Writing application : VirtualDubMod 1.5.10.2 (build 2540/release)
Writing library : VirtualDubMod build 2540/release

Video
ID : 0
Format : MPEG-4 Visual
Format profile : Advanced Simple@L5
Format settings : BVOP2
Format settings, BVOP : 2
Format settings, QPel : No
Format settings, GMC : No warppoints
Format settings, Matrix : Default (MPEG)
Codec ID : XVID
Codec ID/Hint : XviD
Duration : 44 min 20 s
Bit rate : 1 730 kb/s
Width : 720 pixels
Height : 400 pixels
Display aspect ratio : 16:9
Frame rate : 23.976 (24000/1001) FPS
Color space : YUV
Chroma subsampling : 4:2:0
Bit depth : 8 bits
Scan type : Progressive
Compression mode : Lossy
Bits/(Pixel*Frame) : 0.250
Stream size : 549 MiB (78%)
Writing library : XviD 1.2.1 (UTC 2008-12-04)

Audio #1
ID : 1
Format : AC-3
Format/Info : Audio Coding 3
Format settings, Endianness : Big
Codec ID : 2000
Duration : 44 min 20 s
Bit rate mode : Constant
Bit rate : 192 kb/s
Channel(s) : 2 channels
Channel positions : Front: L R
Sampling rate : 48.0 kHz
Frame rate : 31.250 FPS (1536 SPF)
Bit depth : 16 bits
Compression mode : Lossy
Stream size : 60.9 MiB (9%)
Alignment : Split accross interleaves
Service kind : Complete Main

Audio #2
ID : 2
Format : AC-3
Format/Info : Audio Coding 3
Format settings, Endianness : Big
Codec ID : 2000
Duration : 44 min 20 s
Bit rate mode : Constant
Bit rate : 192 kb/s
Channel(s) : 2 channels
Channel positions : Front: L R
Sampling rate : 48.0 kHz
Frame rate : 31.250 FPS (1536 SPF)
Bit depth : 16 bits
Compression mode : Lossy
Stream size : 60.9 MiB (9%)
Alignment : Split accross interleaves
Service kind : Complete Main
Внимание! Раздача ведётся путём добавления новых серий; при каждом добавлении создаётся новый торрент. Чтобы начать докачку новой серии, пользователям необходимо сделать следующее:
(1) остановить скачивание,
(2) удалить старый торрент у себя из клиента (старые серии удалять не надо),
(3) скачать новый торрент и запустить его у себя в клиенте вместо старого, при этом указать клиенту путь в старую папку куда и должно происходить скачивание новых серий.
Ваш клиент при этом должен произвести хеширование (проверку) старой папки (если не производит сам - помогите ему сделать это), и будет докачивать только те серии которых у вас ещё нет. Старые серии при этом не удаляются, а продолжают раздаваться!
Eсли вы уже удалили старые серии, то предотвратить повторную закачку старых серий можно, отжав галочку в соответствующих местах при запуске нового торрента. По возможности, желательно не удалять старые серии как можно дольше чтобы релизёр не столько продолжал раздавать старые серии, а смог сконцентрироваться на новых.
pb.wtf



Скачать Падение Ордена через торрент http://i100.fastpic.ru/big/2017/1208/98/43887703c69983b2383c154955924f98.jpeg Скачать фильм Падение Ордена через торрент бесплантно в хорошем качестве Описание: Действие сериала разворачивается вокруг самой драгоценной и загадочной реликвии христианства — Святого Грааля, бесследно ... 10 10 1
Торрент: Зарегистрирован [2017-12-22 15:15] · скачан: 42 раз
Статус: √ проверено
Размер: 1.81 GB
Как cкачать? Как скачать Падение Ордена через торрент | qTorrent



Последний раз редактировалось: killermax2013 (2017-12-22 15:22), всего редактировалось 2 раз(а)

28-11-2019 20:33  

Отключить всю рекламу на сайте

20-12-2017 15:09 Падение Ордена Скачать торрент  

+2pb.wtf



22-12-2017 15:15 Падение Ордена Скачать торрент  

+3pb.wtf



    Дорогой пользователь! Огромная просьба, поблагодарите релизера, оцените раздачу и оставьте свои комментарий, если Вы скачали Падение Ордена через торрент бесплатно! Внесите свою лепту в развитие PiratBit!
    Комментировать посты могут только пользователи прошедшие не сложную регистрацию
    Показать сообщения:    

    Падение Ордена через торрент
    Скачать бесплатно Падение Ордена
    Падение Ордена скачать торрент
    Падение Ордена смотреть онлайн
    Cкачать фильм Падение Ордена бесплатно
    Падение Ордена скачать торрент в хорошем качестве
    Падение Ордена смотреть онлайн бесплатно в хорошем качестве


    Вы не можете начинать темы
    Вы не можете отвечать на сообщения
    Вы не можете редактировать свои сообщения
    Вы не можете удалять свои сообщения
    Вы не можете голосовать в опросах
    Вы не можете прикреплять файлы к сообщениям
    Вы можете скачивать файлы