Ссылка на приватное зеркало нашего сайта всего за 1$. Внимание количество ограничено!!!

2 сезон

iTunes

1 сезон

1

2 сезон

2 сезон

iTunes

1 сезон

RePack

30

Ultimate

ВАЖНО

ИГРА 18+

pack

RePack

MK11
pack

Забери бонус

RePack

jed

!!Акция!!

Alien_Rage

RePack

fifa19

RePack

Assassins Creed: Odyssey

RePack

NEED FOR SPEED™ PAYBACK

4 сезон

9 сезон

Бесстыжие 9 сезон

Все сериалы

все сериалы на PB.wtf

RePack

FAR CRY 5
  

Хэппи / Happy / Сезон: 1 / Серии 1-8 из 8 (Брайан Тейлор, Дэвид Петрарка) [2017, США, Комедия, фэнтези, криминал, триллер, детектив, WEB-DL 720p] MVO [BaibaKo] pb.wtf

Хэппи через торрент pb.wtf

Размер: 11.84 GB | Добавлен: 2 года 9 мес. назад | Торрент скачан:11 раз
Скачать  

09-12-2017 05:04 Хэппи Скачать торрент  


Хэппи / Happy



  • Год выпуска: 2017
  • Страна: США
  • Жанр: Комедия, фэнтези, криминал, триллер, детектив
  • Продолжительность: ~ 00:45:00 (Серия)
  • Перевод: Профессиональный многоголосый [BaibaKo]
  • Режиссер: Брайан Тейлор, Дэвид Петрарка
  • В ролях:
    Кристофер Мелони, Рен Колли, Александр Джеймисон, Брайс Лоренцо, Майкл Мейзе, Лили Мирожник, Скотт Барик, Бен Коул, Данте Перейра-Олсон, Маттиас Себастьан Гарри



  • Ник Сакс, вечно пьяный бывший полицейский, становится наёмным убийцей. Он плывёт по течению в мире случайных смертей, секса и предательства. Когда одно из его дел идёт наперекосяк, нетрезвая жизнь Сакса навсегда меняется с появлением крошечного, вечно положительного, воображаемого голубого крылатого коня.
  • Рейтинг:

    rating
  • Качество: WEB-DL 720p
  • Формат: :MKV
  • Видео кодек: AVC
  • Аудио кодек: AC3
  • Видео: 4346 Кбит/сек, 1280*720 (16:9), в 23,976 (24000/1001) кадра/сек, AVC
  • Аудио №1: русский 384 Кбит/сек, 48,0 КГц, 16 бит, 6 каналов, AC-3 |[BaibaKo]|
  • Аудио №2: английский 384 Кбит/сек, 48,0 КГц, 16 бит, 6 каналов, AC-3
  • Релиз от: GEKADOL

    Внимание! Раздача ведётся путём добавления новых серий; при каждом добавлении создаётся новый торрент. Чтобы начать докачку новой серии, пользователям необходимо сделать следующее:
    (1) остановить скачивание,
    (2) удалить старый торрент у себя из клиента (старые серии удалять не надо),
    (3) скачать новый торрент и запустить его у себя в клиенте вместо старого, при этом указать клиенту путь в старую папку куда и должно происходить скачивание новых серий.
    Ваш клиент при этом должен произвести хеширование (проверку) старой папки (если не производит сам - помогите ему сделать это), и будет докачивать только те серии которых у вас ещё нет. Старые серии при этом не удаляются, а продолжают раздаваться!
    Eсли вы уже удалили старые серии, то предотвратить повторную закачку старых серий можно, отжав галочку в соответствующих местах при запуске нового торрента. По возможности, желательно не удалять старые серии как можно дольше чтобы релизёр не столько продолжал раздавать старые серии, а смог сконцентрироваться на новых.
    Общее
    Уникальный идентификатор : 241345202047389539737262969513631396077 (0xB5916528ECF5E88DAEC235D67D85B0ED)
    Полное имя : F:\Хэппи (Happy)\Happy!s01e01.HD720p.WEB-DL.Rus.Eng.BaibaKo.tv.mkv
    Формат : Matroska
    Версия формата : Version 4 / Version 2
    Размер файла : 1,56 Гбайт
    Продолжительность : 43 м. 32 с.
    Общий поток : 5116 Кбит/сек
    Дата кодирования : UTC 2017-12-09 04:51:41
    Программа кодирования : mkvmerge v17.0.0 ('Be Ur Friend') 64-bit
    Библиотека кодирования : libebml v1.3.5 + libmatroska v1.4.8
    Writing frontend : StaxRip v1.6.0.0

    Видео
    Идентификатор : 1
    Формат : AVC
    Формат/Информация : Advanced Video Codec
    Профиль формата : High@L3.1
    Настройки формата : CABAC / 3 Ref Frames
    Параметр CABAC формата : Да
    Параметр RefFrames формата : 3 кадра
    Идентификатор кодека : V_MPEG4/ISO/AVC
    Продолжительность : 43 м. 32 с.
    Битрейт : 4346 Кбит/сек
    Ширина : 1280 пикселей
    Высота : 720 пикселей
    Соотношение сторон : 16:9
    Режим частоты кадров : Постоянный
    Частота кадров : 23,976 (24000/1001) кадра/сек
    Цветовое пространство : YUV
    Субдискретизация насыщенности : 4:2:0
    Битовая глубина : 8 бит
    Тип развёртки : Прогрессивная
    Бит/(Пиксели*Кадры) : 0.197
    Размер потока : 1,32 Гбайт (85%)
    Default : Да
    Forced : Нет

    Аудио #1
    Идентификатор : 2
    Формат : AC-3
    Формат/Информация : Audio Coding 3
    Идентификатор кодека : A_AC3
    Продолжительность : 43 м. 32 с.
    Вид битрейта : Постоянный
    Битрейт : 384 Кбит/сек
    Каналы : 6 каналов
    Расположение каналов : Front: L C R, Side: L R, LFE
    Частота : 48,0 КГц
    Частота кадров : 31,250 кадров/сек (1536 SPF)
    Битовая глубина : 16 бит
    Метод сжатия : С потерями
    Задержка видео : 30 мс.
    Размер потока : 120 Мбайт (8%)
    Язык : Russian
    ServiceKind/String : Complete Main
    Default : Нет
    Forced : Нет

    Аудио #2
    Идентификатор : 3
    Формат : AC-3
    Формат/Информация : Audio Coding 3
    Идентификатор кодека : A_AC3
    Продолжительность : 43 м. 32 с.
    Вид битрейта : Постоянный
    Битрейт : 384 Кбит/сек
    Каналы : 6 каналов
    Расположение каналов : Front: L C R, Side: L R, LFE
    Частота : 48,0 КГц
    Частота кадров : 31,250 кадров/сек (1536 SPF)
    Битовая глубина : 16 бит
    Метод сжатия : С потерями
    Задержка видео : 30 мс.
    Размер потока : 120 Мбайт (8%)
    Язык : English
    ServiceKind/String : Complete Main
    Default : Нет
    Forced : Нет




    Скриншоты:
    скриншот   скриншот   скриншот   скриншот   скриншот   скриншот   скриншот  
    скриншот  

    Раздача ведётся путём добавления новых серий. Добавлена 8 серия (02.02.2018).Просьба перекачать торрент файл.

    pb.wtf



  • Скачать Хэппи через торрент http://pic1.kartinco.top/images/11/1xrjm.jpg Скачать фильм Хэппи через торрент бесплантно в хорошем качестве qw.png Ник Сакс, вечно пьяный бывший полицейский, становится наёмным убийцей. Он плывёт по течению в мире случайных смертей, секса и ... 9.9 10 9
    Info! Золотая раздача, скачанное не засчитывается.
    Торрент: Зарегистрирован [2018-02-02 01:21] · скачан: 11 раз
    Статус: √ проверено
    Размер: 11.84 GB
    Как cкачать? Как скачать Хэппи через торрент | qTorrent

    % Раздел Тема Автор DL S | L
    Зарубежные сериалы [ 4.32 GB ] Хэппи / Happy! / Сезон: 1 / Серии: 1-8 из 8 [2017 HDRip] DUB [ТВ3] bober100 Скачать
    1 | 0
    Зарубежные сериалы [ 65.42 GB ] Хэппи! / Happy! / Сезон: 1 / Серии: 1-8 из 8 [2017 BDRemux 1080p] DVO [Кубик в Кубе] bober100 Скачать
    1 | 0
    Зарубежные сериалы [ 4.32 GB ] Хэппи / Happy! / Сезон 1 / Серия 1-8 из 8 [2017 WEB-DLRip] [DVO] killermax2013 Скачать
    1 | 0
    Зарубежные сериалы [ 14.78 GB ] Хэппи / Happy! / Сезон 1 / Серия 1-8 из 8 [2017 WEB-DL 1080p] killermax2013 Скачать
    1 | 0
    Зарубежные сериалы [ 7 GB ] Хэппи / Happy! / Сезон: 1 / Серии: 1-8 из 8 [2017 WEB-DLRip] MVO [LostFilm] bober100 Скачать
    1 | 0
    Зарубежные сериалы [ 4.3 GB ] Хэппи / Happy! / Сезон: 1 / Серии: 1-8 из 8 [2017 WEB-DLRip] MVO [NewStudio] bober100 Скачать
    1 | 0
    Зарубежные сериалы [ 3.42 GB ] Хэппи / Happy! / Сезон: 1 / Серии: 1-8 из 8 [2017 HDTVRip] MVO [ColdFilm] bober100 Скачать
    1 | 0


    Последний раз редактировалось: GEKADOL (2018-02-02 01:21), всего редактировалось 16 раз(а)

    28-11-2019 20:33  

    Отключить всю рекламу на сайте

    09-12-2017 07:02 Хэппи Скачать торрент  

    10-12-2017 18:32 Хэппи Скачать торрент  

    Сколько ждал, думал будет в ретро стиле 90-х, но немного не угадал. А так бомбезный наполненный атмосферой черного юмора детективный боевикpb.wtf



    11-12-2017 15:26 Хэппи Скачать торрент  

    юморно pb.wtf



    13-12-2017 00:03 Хэппи Скачать торрент  

    Замена на PROPER. Проблемы со звуком в конце исправлены!!!!!pb.wtf



    23-12-2017 18:24 Хэппи Скачать торрент  

    Давай еще!!!!!!!!!!!!!!!!!!!!!pb.wtf



      Дорогой пользователь! Огромная просьба, поблагодарите релизера, оцените раздачу и оставьте свои комментарий, если Вы скачали Хэппи через торрент бесплатно! Внесите свою лепту в развитие PiratBit!
      Комментировать посты могут только пользователи прошедшие не сложную регистрацию
      Показать сообщения:    

      Хэппи через торрент
      Скачать бесплатно Хэппи
      Хэппи скачать торрент
      Хэппи смотреть онлайн
      Cкачать фильм Хэппи бесплатно
      Хэппи скачать торрент в хорошем качестве
      Хэппи смотреть онлайн бесплатно в хорошем качестве


      Вы не можете начинать темы
      Вы не можете отвечать на сообщения
      Вы не можете редактировать свои сообщения
      Вы не можете удалять свои сообщения
      Вы не можете голосовать в опросах
      Вы не можете прикреплять файлы к сообщениям
      Вы можете скачивать файлы