Ссылка на приватное зеркало нашего сайта всего за 1$. Внимание количество ограничено!!!

2 сезон

iTunes

1 сезон

1

iTunes

iTunes

iTunes

1 сезон

RePack

30

ИГРА 18+

pack

ВАЖНО

!!Акция!!

Alien_RageХит недели

RePack

MK11
pack

Забери бонус

RePack

jed

!!Акция!!

Alien_Rage

RePack

fifa19

RePack

Assassins Creed: Odyssey

RePack

NEED FOR SPEED™ PAYBACK

4 сезон

9 сезон

Бесстыжие 9 сезон

Все сериалы

все сериалы на PB.wtf

RePack

FAR CRY 5
  

Особь 2 / Species II (Питер Медак) [1998, ужасы, фантастика, боевик, триллер, BDRip 1080p by msltel] 2 x MVO, DVO, AVO pb.wtf

Особь 2 через торрент pb.wtf

Размер: 11.95 GB | Добавлен: 2 года 10 мес. назад | Торрент скачан:34 раза
Скачать  

09-12-2017 06:21 Особь 2 Скачать торрент  

Название: Особь 2
Оригинальное название: Species II
Год выпуска: 1998
Страна: США
Жанр: ужасы, фантастика, боевик, триллер
Продолжительность: 01:33:02
Перевод: профессиональный многоголосый, профессиональный двухголосый, авторский

Режиссер: Питер Медак
В ролях: Майкл Мэдсен, Наташа Хенстридж, Марж Хелгенбергер, Майкелти Уильямсон, Джордж Зунза, Джеймс Кромуэлл, Джастин Лазард, Мириам Сир, Сара Уайнтер, Бакстер Харрис

О фильме: Учёные-астронавты возвращаются на Землю после успешной экспедиции на Марс. Однако с различными пробами на корабль проникает нечто ужасное, что угрожает жизни землян. Один из участников полёта превращается в неземную тварь и жаждет наплодить себе подобных. Ему необходимо встретиться с другой особью, которую изучают в лаборатории. Этого не должно произойти...



Качество: BDRip 1080p
Формат: MKV
Видео: MPEG-4 AVC, 15.9 Mбит/с, 1920x1038, 23.976 кадр/с
Аудио 1: русский, AC3, 192 kbps, 2 ch, 48 kHz [профессиональный многоголосый, Варус видео]
Аудио 2: русский, AC3, 192 kbps, 2 ch, 48 kHz [профессиональный многоголосый, HTB]
Аудио 3: русский, AC3, 192 kbps, 2 ch, 48 kHz [профессиональный двухголосый, HTB+]
Аудио 4: русский, AC3, 384 kbps, 6 ch, 48 kHz [авторский, Юрий Живов]
Аудио 5: английский, DTS, 1509 kbps, 6 ch, 48 kHz [оригинал]
Субтитры 1: русские
Субтитры 2: английские
Неименованные главы/чаптеры.
Общее
Уникальный идентификатор : 247636640112200621854748333345713019574 (0xBA4D15015B57C63B97AE44B74685DAB6)
Полное имя : D:\Video\Особь 2.1998.BDRip.1080p by msltel.mkv
Формат : Matroska
Версия формата : Version 4 / Version 2
Размер файла : 12,0 Гбайт
Продолжительность : 1 ч. 33 м.
Общий поток : 18,4 Мбит/сек
Название фильма : Rip by msltel
Дата кодирования : UTC 2017-12-06 02:54:58
Программа кодирования : mkvmerge v8.2.0 ('World of Adventure') 64bit
Библиотека кодирования : libebml v1.3.1 + libmatroska v1.4.2

Видео
Идентификатор : 1
Формат : AVC
Формат/Информация : Advanced Video Codec
Профиль формата : High@L4.1
Настройки формата : CABAC / 4 Ref Frames
Параметр CABAC формата : Да
Параметр RefFrames формата : 4 кадра
Идентификатор кодека : V_MPEG4/ISO/AVC
Продолжительность : 1 ч. 33 м.
Битрейт : 15,9 Мбит/сек
Ширина : 1920 пикселей
Высота : 1038 пикселей
Соотношение сторон : 1,85:1
Режим частоты кадров : Постоянный
Частота кадров : 23,976 (24000/1001) кадра/сек
Цветовое пространство : YUV
Субдискретизация насыщенности : 4:2:0
Битовая глубина : 8 бит
Тип развёртки : Прогрессивная
Бит/(Пиксели*Кадры) : 0.333
Размер потока : 10,3 Гбайт (87%)
Библиотека кодирования : x264 core 146 r2538 121396c
Настройки программы : cabac=1 / ref=4 / deblock=1:-3:-2 / analyse=0x3:0x113 / me=umh / subme=11 / psy=1 / psy_rd=1.00:0.15 / mixed_ref=1 / me_range=32 / chroma_me=1 / trellis=2 / 8x8dct=1 / cqm=0 / deadzone=21,11 / fast_pskip=0 / chroma_qp_offset=-3 / threads=6 / lookahead_threads=1 / sliced_threads=0 / nr=0 / decimate=1 / interlaced=0 / bluray_compat=0 / constrained_intra=0 / bframes=11 / b_pyramid=2 / b_adapt=2 / b_bias=0 / direct=1 / weightb=1 / open_gop=0 / weightp=2 / keyint=230 / keyint_min=23 / scenecut=40 / intra_refresh=0 / rc_lookahead=40 / rc=crf / mbtree=0 / crf=18.3 / qcomp=0.60 / qpmin=0 / qpmax=69 / qpstep=4 / vbv_maxrate=62500 / vbv_bufsize=78125 / crf_max=0.0 / nal_hrd=none / filler=0 / ip_ratio=1.40 / pb_ratio=1.30 / aq=1:1.00
Язык : English
Default : Да
Forced : Нет

Аудио #1
Идентификатор : 2
Формат : AC-3
Формат/Информация : Audio Coding 3
Идентификатор кодека : A_AC3
Продолжительность : 1 ч. 33 м.
Вид битрейта : Постоянный
Битрейт : 192 Кбит/сек
Каналы : 2 канала
Расположение каналов : Front: L R
Частота : 48,0 КГц
Частота кадров : 31,250 кадров/сек (1536 SPF)
Битовая глубина : 16 бит
Метод сжатия : С потерями
Размер потока : 128 Мбайт (1%)
Заголовок : MVO.Варус видео
Язык : Russian
ServiceKind/String : Complete Main
Default : Да
Forced : Нет

Аудио #2
Идентификатор : 3
Формат : AC-3
Формат/Информация : Audio Coding 3
Идентификатор кодека : A_AC3
Продолжительность : 1 ч. 33 м.
Вид битрейта : Постоянный
Битрейт : 192 Кбит/сек
Каналы : 2 канала
Расположение каналов : Front: L R
Частота : 48,0 КГц
Частота кадров : 31,250 кадров/сек (1536 SPF)
Битовая глубина : 16 бит
Метод сжатия : С потерями
Размер потока : 128 Мбайт (1%)
Заголовок : MVO.HTB
Язык : Russian
ServiceKind/String : Complete Main
Default : Нет
Forced : Нет

Аудио #3
Идентификатор : 4
Формат : AC-3
Формат/Информация : Audio Coding 3
Идентификатор кодека : A_AC3
Продолжительность : 1 ч. 33 м.
Вид битрейта : Постоянный
Битрейт : 192 Кбит/сек
Каналы : 2 канала
Расположение каналов : Front: L R
Частота : 48,0 КГц
Частота кадров : 31,250 кадров/сек (1536 SPF)
Битовая глубина : 16 бит
Метод сжатия : С потерями
Размер потока : 128 Мбайт (1%)
Заголовок : DVO.HTB+
Язык : Russian
ServiceKind/String : Complete Main
Default : Нет
Forced : Нет

Аудио #4
Идентификатор : 5
Формат : AC-3
Формат/Информация : Audio Coding 3
Идентификатор кодека : A_AC3
Продолжительность : 1 ч. 33 м.
Вид битрейта : Постоянный
Битрейт : 384 Кбит/сек
Каналы : 6 каналов
Расположение каналов : Front: L C R, Side: L R, LFE
Частота : 48,0 КГц
Частота кадров : 31,250 кадров/сек (1536 SPF)
Битовая глубина : 16 бит
Метод сжатия : С потерями
Размер потока : 256 Мбайт (2%)
Заголовок : Живов
Язык : Russian
ServiceKind/String : Complete Main
Default : Нет
Forced : Нет

Аудио #5
Идентификатор : 6
Формат : DTS
Формат/Информация : Digital Theater Systems
Идентификатор кодека : A_DTS
Продолжительность : 1 ч. 33 м.
Вид битрейта : Постоянный
Битрейт : 1509 Кбит/сек
Каналы : 6 каналов
Расположение каналов : Front: L C R, Side: L R, LFE
Частота : 48,0 КГц
Частота кадров : 93,750 кадра/сек (512 SPF)
Битовая глубина : 24 бит
Метод сжатия : С потерями
Размер потока : 1004 Мбайт (8%)
Заголовок : original
Язык : English
Default : Нет
Forced : Нет

Текст #1
Идентификатор : 7
Формат : UTF-8
Идентификатор кодека : S_TEXT/UTF8
Идентификатор кодека/Информация : UTF-8 Plain Text
Продолжительность : 1 ч. 25 м.
Битрейт : 84 бит/сек
ElementCount : 804
Размер потока : 52,9 Кбайт (0%)
Заголовок : русские
Язык : Russian
Default : Нет
Forced : Нет

Текст #2
Идентификатор : 8
Формат : UTF-8
Идентификатор кодека : S_TEXT/UTF8
Идентификатор кодека/Информация : UTF-8 Plain Text
Продолжительность : 1 ч. 25 м.
Битрейт : 49 бит/сек
ElementCount : 928
Размер потока : 31,2 Кбайт (0%)
Заголовок : английские
Язык : English
Default : Нет
Forced : Нет

Меню
00:00:00.000 : en:Chapter 01
00:10:15.740 : en:Chapter 02
00:20:20.969 : en:Chapter 03
00:27:59.552 : en:Chapter 04
00:33:52.447 : en:Chapter 05
00:41:16.056 : en:Chapter 06
00:49:01.897 : en:Chapter 07
00:58:37.180 : en:Chapter 08
01:05:50.112 : en:Chapter 09
01:12:49.782 : en:Chapter 10
01:20:02.547 : en:Chapter 11
01:25:15.735 : en:Chapter 12
pb.wtf



Скачать Особь 2 через торрент http://s010.radikal.ru/i312/1712/02/8c8e7ffc81f0.jpg Скачать фильм Особь 2 через торрент бесплантно в хорошем качестве О фильме: Учёные-астронавты возвращаются на Землю после успешной экспедиции на Марс. Однако с различными пробами на корабль проникает нечто ... 10 10 3
Info! Золотая раздача, скачанное не засчитывается.
Торрент: Зарегистрирован [2017-12-09 06:21] · скачан: 34 раз
Статус: √ проверено
Размер: 11.95 GB
Как cкачать? Как скачать Особь 2 через торрент | qTorrent

% Раздел Тема Автор DL S | L
Фильмы [HD 720p, 1080p] (Хороший звук DUB, MVO) [ 4.84 GB ] Особь 2 / Species II [1998 BDRip 720p by msltel] 2 x MVO DVO AVO msltel Скачать
1 | 0

28-11-2019 20:33  

Отключить всю рекламу на сайте

    Дорогой пользователь! Огромная просьба, поблагодарите релизера, оцените раздачу и оставьте свои комментарий, если Вы скачали Особь 2 через торрент бесплатно! Внесите свою лепту в развитие PiratBit!
    Комментировать посты могут только пользователи прошедшие не сложную регистрацию
    Показать сообщения:    

    Особь 2 через торрент
    Скачать бесплатно Особь 2
    Особь 2 скачать торрент
    Особь 2 смотреть онлайн
    Cкачать фильм Особь 2 бесплатно
    Особь 2 скачать торрент в хорошем качестве
    Особь 2 смотреть онлайн бесплатно в хорошем качестве


    Вы не можете начинать темы
    Вы не можете отвечать на сообщения
    Вы не можете редактировать свои сообщения
    Вы не можете удалять свои сообщения
    Вы не можете голосовать в опросах
    Вы не можете прикреплять файлы к сообщениям
    Вы можете скачивать файлы