новый адрес
Мега распродажа FORZA HORIZON 4 ULTIMATE+ВСЕ DLC+ОНЛАЙН всего за 499р. 349 руб. (супер цена). Внимание количество ограничено!!!

iTunes

1+1

iTunes

мы

iTunes

1

iTunes

Чернобыль

iTunes

Ральф против интернета

Лицензия

ПШазам

Лицензия

Оно 2

Лицензия

30
pack

ВАЖНО

!!Акция!!

Alien_RageХит недели

RePack

Resident Evil 21

ИГРА 18+

pack

RePack

Metro:Exodus

!!Акция!!

Alien_Rage

RePack

fifa19

RePack

Assassins Creed: Odyssey

RePack

NEED FOR SPEED™ PAYBACK

3 сезон

9 сезон

Бесстыжие 9 сезон

Все сериалы

все сериалы на PB.wtf

RePack

FAR CRY 5
Ребята, катастрофически не хватает 1900р. для оплаты серверов за Октябрь (всвязи с блокировками трафик упал в 3 раза), 1-2р., выручайте.
  

Сыну пора жениться (Тахир Сабиров) [1959, СССР, комедия, SATRip от AVP Studio] pb.wtf

Сыну пора жениться через торрент pb.wtf

Размер: 1.09 GB | Добавлен: 1 год 11 мес. назад | Торрент скачан:13 раз
Скачать  

09-12-2017 08:08 Сыну пора жениться Скачать торрент  

Сыну пора жениться
Страна: СССР
Производство: Таджикфильм

Жанр: комедия
Год выпуска: 1959
Продолжительность: 01:19:53

Перевод: Не требуется
Cубтитры: нет
Оригинальная аудиодорожка: русский

Режиссер: Тахир Сабиров

В ролях:
Джахон Саидмурадов, Марат Арипов, Асли (Аслиддин) Бурханов, Гульчехра Бакаева, Дилорам Джурабаева, Дильбар Касымова, Роза Акобирова...
Об актёрах подробней

Описание:
В родной колхоз после учебы приезжает зоотехник Азам. Он привозит с собой друга, художника Сайфи (Марат Арипов). Их встречают две девушки по имени Зебо, одну из которых прозвали смуглой, а другую - нежной.

Исходник: DVB
Качество видео: SATRip
Формат видео: AVI

Видео: 704х528 (4:3), 25 fps, XviD ~ 1752 kbps avg, 0.189 bit/pixel
Аудио: 48 kHz, Dolby Digital AC3 2.0, 192 kbps

Раздача от:
Общее
Полное имя : Synu.pora.zhenitsya.1959.SATRip_[New-team]_by_AVP_Studio.avi
Формат : AVI
Формат/Информация : Audio Video Interleave
Размер файла : 1,09 Гбайт
Продолжительность : 1 ч. 19 м.
Общий поток : 1954 Кбит/сек
Программа кодирования : VirtualDubMod 1.5.10.3 | www.virtualdub-fr.org || (build 2550/release)
Библиотека кодирования : VirtualDubMod build 2550/release

Видео
Идентификатор : 0
Формат : MPEG-4 Visual
Профиль формата : Advanced Simple@L5
Настройки формата : BVOP1 / Custom Matrix
Параметр BVOP формата : 1
Параметр QPel формата : Нет
Параметр GMC формата : Без точки перехода
Параметр матрицы формата : Выборочная
Идентификатор кодека : XVID
Идентификатор кодека/Подсказка : XviD
Продолжительность : 1 ч. 19 м.
Битрейт : 1752 Кбит/сек
Ширина : 704 пикселя
Высота : 528 пикселей
Соотношение сторон : 4:3
Частота кадров : 25,000 кадров/сек
Цветовое пространство : YUV
Субдискретизация насыщенности : 4:2:0
Битовая глубина : 8 бит
Тип развёртки : Прогрессивная
Метод сжатия : С потерями
Бит/(Пиксели*Кадры) : 0.189
Размер потока : 1001 Мбайт (90%)
Библиотека кодирования : XviD 73

Аудио
Идентификатор : 1
Формат : AC-3
Формат/Информация : Audio Coding 3
Идентификатор кодека : 2000
Продолжительность : 1 ч. 19 м.
Вид битрейта : Постоянный
Битрейт : 192 Кбит/сек
Каналы : 2 канала
Расположение каналов : Front: L R
Частота : 48,0 КГц
Частота кадров : 31,250 кадров/сек (1536 SPF)
Битовая глубина : 16 бит
Метод сжатия : С потерями
Размер потока : 110 Мбайт (10%)
Выравнивание : Разделение по промежуткам
Продолжительность промежутка : 40 мс. (1,00 видеокадр)
Время предзагрузки промежутка : 500 мс
pb.wtf



Скачать Сыну пора жениться через торрент http://s011.radikal.ru/i315/1712/2c/207355e78f25.png Скачать фильм Сыну пора жениться через торрент бесплантно в хорошем качестве Описание:В родной колхоз после учебы приезжает зоотехник Азам. Он привозит с собой друга, художника Сайфи (Марат Арипов). Их встречают две ... 5 10 1
Info! Золотая раздача, скачанное не засчитывается.
Торрент: Зарегистрирован [2017-12-09 08:08] · скачан: 13 раз
Статус: √ проверено
Размер: 1.09 GB
Как cкачать? Как скачать Сыну пора жениться через торрент | qTorrent

% Раздел Тема Автор DL S | L
Кино СССР [ 1.09 GB ] Сыну пора жениться [1959 СССР SATRip-AVC от AVP Studio] AVP Studio Скачать
1 | 0


>> Регистрируемся здесь <<






Отзывы и комментарии о схеме читаем и пишем здесь: ---> Отзывы и комментарии о схеме

Новые благодарочки в телеграм довольных пользователей:
скриншот   скриншот   скриншот   скриншот   скриншот
    Дорогой пользователь! Огромная просьба, поблагодарите релизера, оцените раздачу и оставьте свои комментарий, если Вы скачали Сыну пора жениться через торрент бесплатно! Внесите свою лепту в развитие PiratBit!
    Комментировать посты могут только пользователи прошедшие не сложную регистрацию
    Показать сообщения:    

    Сыну пора жениться через торрент
    Скачать бесплатно Сыну пора жениться
    Сыну пора жениться скачать торрент
    Сыну пора жениться смотреть онлайн
    Cкачать фильм Сыну пора жениться бесплатно
    Сыну пора жениться скачать торрент в хорошем качестве
    Сыну пора жениться смотреть онлайн бесплатно в хорошем качестве


    Вы не можете начинать темы
    Вы не можете отвечать на сообщения
    Вы не можете редактировать свои сообщения
    Вы не можете удалять свои сообщения
    Вы не можете голосовать в опросах
    Вы не можете прикреплять файлы к сообщениям
    Вы можете скачивать файлы